<?xml version="1.0" standalone="no"?>
<!DOCTYPE svg PUBLIC "-//W3C//DTD SVG 1.1//EN" "http://www.w3.org/Graphics/SVG/1.1/DTD/svg11.dtd" >
<svg xmlns="http://www.w3.org/2000/svg" xmlns:xlink="http://www.w3.org/1999/xlink" version="1.1">
<metadata></metadata>
<defs>
<font id="hall_of_fun_cleanregular" horiz-adv-x="686" >
<font-face units-per-em="1000" ascent="750" descent="-250" />
<missing-glyph horiz-adv-x="360" />
<glyph horiz-adv-x="0" />
<glyph unicode="&#xd;" horiz-adv-x="400" />
<glyph horiz-adv-x="0" />
<glyph horiz-adv-x="0" />
<glyph unicode=" "  horiz-adv-x="360" />
<glyph unicode="&#x09;" horiz-adv-x="360" />
<glyph unicode="&#xa0;" horiz-adv-x="360" />
<glyph unicode="!" horiz-adv-x="504" d="M442 902q17 -8 25 -15t10 -12q3 -6 1 -11q-39 -50 -81 -119t-83.5 -144.5t-78.5 -150t-65.5 -134.5t-46.5 -99t-19 -43q-2 -6 -3 -15t-3.5 -16.5t-6.5 -13t-11 -5.5q-8 0 -12 4.5t-5.5 11t-2 13t-0.5 9.5q0 23 20 74.5t52.5 119.5t73.5 145.5t83.5 152t82.5 140t70 108.5 zM62 50q15 0 26 -17.5t11 -42.5t-11 -42t-26 -17t-26 17t-11 42t11 42.5t26 17.5z" />
<glyph unicode="&#x22;" horiz-adv-x="249" d="M101 713q11 -4 17 -10l11 -11l8 -14q-13 -12 -32.5 -39.5t-38 -55.5t-32.5 -49.5t-17 -21.5q-5 0 -12.5 11t-1.5 27q6 15 22 42.5t33 54.5q19 32 43 66zM206 713q11 -4 17 -10l11 -11l8 -14q-13 -12 -32.5 -39.5t-38 -55.5t-32.5 -49.5t-17 -21.5q-5 0 -12.5 11t-1.5 27 q6 15 22 42.5t33 54.5q19 32 43 66z" />
<glyph unicode="#" horiz-adv-x="682" d="M548 416q32 -3 53 -8t33 -10.5t16 -11t3 -9.5q-3 -9 -10 -11q-4 -2 -6 -1q-29 3 -58.5 5.5t-59.5 4.5q-34 -49 -70.5 -103t-69 -108t-59 -104t-39.5 -90q-1 -5 -3 -9q-4 -9 -12 -9q-9 0 -12 6t-3 12q0 11 9 35.5t25.5 58.5t39.5 76.5t52 90.5q-20 -2 -47.5 -4.5 t-56.5 -5.5t-58 -5.5t-52 -4.5q-48 -91 -74.5 -145.5t-29.5 -59.5q-3 -6 -8.5 -5t-10.5 5q-6 4 -12 12q14 38 37.5 86.5t52.5 102.5h-7q-6 0 -11 5t-8 12q-4 8 -6 18l53 3q19 35 39.5 70.5t40.5 70.5h-110h-42q-6 3 -10 7q-9 7 -9 15t3 11q2 2 4 2q20 -2 70 -2.5t113 -0.5 q36 62 70.5 117t60.5 97q31 49 58 92q5 6 11.5 2.5t11.5 -10.5q6 -8 13 -20q-51 -74 -96.5 -143.5t-84.5 -134.5h203h11q29 44 60.5 87t63.5 85q9 -3 16 -7q6 -3 11 -7.5t5 -10.5q0 -5 -29.5 -45.5t-74.5 -103.5zM391 255q36 60 78 123q-55 3 -107 5t-99 3q-22 -38 -42 -72 t-37 -66q27 2 56.5 4t55.5 3.5t45.5 2.5t27.5 1q15 0 22 -4z" />
<glyph unicode="$" horiz-adv-x="552" d="M358 416q-11 4 -19 9q-7 5 -12 10t-1 12q2 4 15 26t30.5 52.5t36 65t31.5 63.5t17 48t-7 19q-15 0 -35 -11q-17 -44 -36.5 -95t-40 -105.5t-42 -111t-42.5 -112.5q20 -16 39.5 -32.5t35 -33t25 -33t9.5 -31.5q0 -22 -17.5 -51.5t-44.5 -56.5t-59.5 -45.5t-61.5 -18.5 q-18 0 -36 3q-25 -66 -40.5 -108.5t-17.5 -48.5q-5 -12 -9.5 -16t-9.5 -4t-10 4q10 38 23 84t30 97q-39 13 -67 33.5t-28 41.5q0 30 4 39.5t9 9.5t8.5 -14.5t11 -33t23 -35.5t44.5 -23q22 66 46.5 136.5t50.5 142.5q-19 14 -36.5 28.5t-31 29t-22 29t-8.5 28.5 q0 8 11.5 31.5t31 55t46 68t56 71t61 63t61.5 44.5l56 141q2 8 8.5 5.5t12.5 -9.5q7 -8 16 -20q-8 -18 -18.5 -44t-22.5 -58h2q19 0 31 -7.5t18 -18t8 -20.5t2 -16q0 -22 -32 -89.5t-103 -187.5zM218 313q35 94 68.5 183.5t62.5 164.5q-35 -32 -70 -73t-64 -80.5t-47 -71.5 t-18 -47q0 -14 20 -33.5t48 -42.5zM322 178q0 20 -22.5 42t-53.5 46q-26 -70 -50 -134.5t-44 -119.5q35 4 66 24t54 45.5t36.5 52t13.5 44.5z" />
<glyph unicode="%" horiz-adv-x="435" d="M391 750q20 -8 26.5 -15.5t8.5 -12.5q1 -6 -3 -12q-25 -32 -60 -89.5t-73.5 -126t-76.5 -141t-69.5 -134.5t-52.5 -105.5t-26 -54.5q-7 -16 -9.5 -32t-5 -29t-6.5 -21t-13 -8t-13.5 4t-7 9.5t-3 10.5t-0.5 8q0 30 16.5 78t43.5 106.5t61.5 122.5t70.5 127q84 147 192 315 zM122 501q-16 0 -26.5 17t-10.5 42t10.5 42t26.5 17q15 0 26 -17t11 -42t-11 -42t-26 -17zM242 187q15 0 26 -17t11 -42t-11 -42t-26 -17q-16 0 -26.5 17t-10.5 42t10.5 42t26.5 17z" />
<glyph unicode="&#x26;" horiz-adv-x="596" d="M587 447q0 -15 -19 -44.5t-51 -67.5t-74 -80.5t-87 -83t-90.5 -76t-84.5 -58.5q1 -42 4.5 -70t8.5 -47.5t10.5 -32t8.5 -23.5q2 -11 -2 -15q-2 -2 -5 -2q-10 0 -22 15t-22.5 39t-19 53t-10.5 58q-23 -9 -40 -9q-46 0 -73.5 17t-27.5 41q0 15 12.5 37t34 49t50 59t61.5 68 q9 71 23.5 146t33.5 145.5t43.5 133t53 109t62 73.5t72.5 27q28 0 44.5 -9.5t24 -22t9.5 -24.5t2 -16q0 -77 -30.5 -153.5t-77 -150t-103 -141t-108.5 -125.5q-6 -46 -10 -89.5t-6 -82.5q36 26 76 58.5t79 67.5t74.5 71t62.5 68t43 58.5t16 43.5q0 3 3 7q2 3 5.5 5.5 t10.5 2.5q13 0 24 -10.5t11 -18.5zM455 880q-40 0 -77 -47.5t-68.5 -124t-57 -173t-42.5 -194.5q48 54 94.5 113t84 120.5t60.5 125t23 126.5q0 7 -1 16t-3 17.5t-5.5 14.5t-7.5 6zM58 30q12 0 31 8.5t43 22.5q2 64 9 140q-44 -50 -72 -87t-28 -60q0 -7 4.5 -15.5t12.5 -8.5 z" />
<glyph unicode="'" horiz-adv-x="134" d="M101 713q11 -4 17 -10l11 -11l8 -14q-13 -12 -32.5 -39.5t-38 -55.5t-32.5 -49.5t-17 -21.5q-5 0 -12.5 11t-1.5 27q6 15 22 42.5t33 54.5q19 32 43 66z" />
<glyph unicode="(" horiz-adv-x="547" d="M504 786q-36 -18 -82 -60t-94 -98.5t-94.5 -124t-82.5 -137t-58 -137.5t-22 -125q0 -9 1.5 -26.5t7 -37.5t15 -39.5t25.5 -32.5v4q0 4 3 4q3 -1 8.5 -13.5t5.5 -18.5q0 -3 -3 -4.5t-6 -2.5q-4 -1 -9 0q-25 0 -42.5 15.5t-29 38.5t-17 51t-5.5 52q0 70 27.5 150.5 t70 160.5t95 154t102.5 130.5t92.5 90t64.5 33.5q5 0 12.5 -1t14 -3t11.5 -6.5t5 -10.5q0 -2 -3.5 -1.5t-12.5 -4.5z" />
<glyph unicode=")" horiz-adv-x="547" d="M40 -38q36 18 82 60t94 98.5t94.5 124t82.5 137t58 137t22 125.5q0 9 -2 26.5t-7 37.5t-14.5 39.5t-25.5 32.5v-4q0 -4 -3 -4q-3 1 -8.5 13.5t-5.5 18.5q0 4 9 6q4 1 9 1q25 0 42.5 -15.5t29 -38.5t17 -51t5.5 -52q0 -70 -27.5 -150.5t-70 -160.5t-95 -154t-102.5 -130.5 t-92.5 -90t-64.5 -33.5q-5 0 -12.5 1t-14.5 3t-11.5 6.5t-4.5 10.5q0 2 3.5 1.5t12.5 4.5z" />
<glyph unicode="*" horiz-adv-x="277" d="M226 659q-6 2 -30 -1t-52 -9q5 -16 11 -34t12 -35l14 -38q-20 -3 -26.5 5t-8.5 14q-5 11 -10.5 30t-13.5 42q-18 -17 -35.5 -35.5t-32.5 -38.5q-1 -1 -4 -1q-6 0 -13 4q-9 5 -10.5 7.5t-1.5 4.5q1 5 15 21t34 36q-3 0 -7 -2q-7 -2 -12.5 1.5t-10.5 8.5q-5 6 -10 14 q9 3 30.5 8t46.5 10q-10 35 -17.5 64.5t-7.5 38.5q0 4 4 3t9.5 -3.5t11 -6t8.5 -5.5q2 -2 4 -9t4 -17t4 -22t4 -23q23 21 42 36t26 15q8 0 14 -3.5t9 -7.5t4 -7.5t0 -4.5q-2 -1 -15.5 -10t-33.5 -25q8 1 14 1.5t11 0.5q12 0 21 -4t14.5 -9.5t8 -10l2.5 -4.5q0 -1 -7 -1.5 t-19 2.5z" />
<glyph unicode="+" horiz-adv-x="318" d="M276 386q4 -4 8 -9q3 -5 5.5 -10.5t2.5 -10.5q0 -11 -10.5 -8.5t-17.5 3.5q-3 0 -27.5 1t-58.5 2q0 -23 -0.5 -49t-2.5 -55q-4 -4 -9 -8q-5 -3 -10.5 -5.5t-10.5 -2.5q-11 0 -8.5 10.5t3.5 16.5q0 4 1 30.5t2 62.5q-26 -1 -50.5 -2t-43.5 -4q-2 1 -5 3q-7 4 -11 11 q-13 19 -8 20q14 1 32 3q15 2 36.5 2.5t49.5 1.5q-1 24 -2.5 47t-3.5 41q1 2 3 5q4 7 11 11q19 13 20 8q1 -13 3 -30q1 -14 2 -35t2 -47q45 0 98 -3z" />
<glyph unicode="," horiz-adv-x="113" d="M54 63q13 0 20.5 -4.5t11 -11t4.5 -13.5t1 -13q0 -14 -11 -28t-22 -17q-10 -3 -17 1q-4 2 -7 5q10 3 15 13q3 4 5 11q-14 0 -20 9t-5.5 19.5t7 19.5t18.5 9z" />
<glyph unicode="-" horiz-adv-x="318" d="M280 385q4 -5 8 -9q3 -4 5.5 -9.5t2.5 -10.5q0 -11 -10 -9t-17 3q-3 0 -27.5 1t-57.5 1.5t-68.5 -0.5t-62.5 -5q-2 1 -5 3q-7 4 -11 11q-13 20 -8 20q31 4 71 6q34 2 80 2t100 -4z" />
<glyph unicode="." horiz-adv-x="109" d="M53 76q13 0 21.5 -10.5t8.5 -25.5q0 -14 -8.5 -24.5t-21.5 -10.5t-21.5 10.5t-8.5 24.5q0 15 8.5 25.5t21.5 10.5z" />
<glyph unicode="/" horiz-adv-x="246" d="M340 742q20 -9 26.5 -16.5t8.5 -12.5q1 -6 -3 -11q-25 -32 -60 -89.5t-73.5 -126t-76.5 -141.5t-69.5 -134.5t-52.5 -105t-26 -54.5q-7 -17 -10 -33t-5.5 -28.5t-6 -20.5t-12.5 -8t-13.5 4t-7 9t-3 10.5t-0.5 8.5q0 30 16.5 78t43.5 106.5t61.5 122.5t70.5 127 q84 147 192 315z" />
<glyph unicode="0" horiz-adv-x="641" d="M567 904q19 0 33 -8.5t23 -22.5t13.5 -32t4.5 -37q0 -28 -13 -74.5t-34.5 -103.5t-50 -122t-60.5 -129t-65.5 -123.5t-63.5 -107.5q-41 -64 -76.5 -99.5t-65.5 -53t-53 -21.5t-39 -4q-57 0 -84 36t-29 97t17.5 140.5t55 166t84 175t104.5 166.5q1 3 5 5t10.5 3t20.5 2 q13 1 21.5 -1.5t13.5 -6.5q71 81 130 118t98 37zM263 92q31 40 64 94.5t66 117t63.5 129.5t55.5 130.5t43.5 120t26.5 99.5t4.5 68t-22.5 25t-54.5 -25.5t-79 -70t-92.5 -103.5t-95.5 -126.5t-86.5 -140t-67 -142.5q-3 -6 -10 -12q-20 -75 -20 -147q0 -18 3.5 -39.5 t11 -40.5t20 -32t30.5 -13q3 0 14.5 3t29.5 14t42 32.5t53 58.5z" />
<glyph unicode="1" horiz-adv-x="484" d="M480 882q8 -5 8 -9q0 -2 -2 -4q-122 -206 -218 -386q-41 -77 -80 -156t-70 -150.5t-49.5 -130.5t-18.5 -95l-49 10q4 57 40 156q15 42 38.5 98t58 127t81.5 157.5t109 191.5q-14 -5 -23.5 -3.5t-14.5 5.5q-6 4 -10 11q6 8 16 20t23 27t28 31t29 31q33 36 72 76q6 0 11 -1 q11 -2 21 -6z" />
<glyph unicode="2" horiz-adv-x="611" d="M489 903q17 0 37 -4.5t37.5 -15t29.5 -28t12 -44.5q0 -66 -29.5 -141t-76 -152t-104 -152t-114 -142t-105.5 -121.5t-79 -89.5q38 0 75 -1.5t70 -3t60 -2.5t44 -1q18 0 37 2.5t34 5.5q18 4 35 9l2 -47q-32 -11 -75.5 -13t-87.5 -0.5t-83 5t-62 3.5q-29 0 -50 -2t-33 -4 v-1q-1 -8 -5.5 -10.5t-10 -2.5t-11 1t-8.5 2q-5 2 -6 8t-9 11q-7 4 -7 14q-1 4 0 9q154 156 275 307q52 64 101.5 134t88.5 138.5t62.5 133t23.5 118.5v10.5t-2 15.5t-7 14.5t-15 6.5q-38 0 -79 -18t-80.5 -46t-75.5 -62.5t-63 -68.5t-43 -63.5t-16 -46.5q0 -8 2.5 -12 t2.5 -7q0 -2 -4.5 -3t-7.5 -1q-23 0 -29.5 13t-6.5 32q0 20 16 50.5t43 65.5t62.5 70t75 63.5t80.5 46t79 17.5z" />
<glyph unicode="3" horiz-adv-x="530" d="M528 836q0 -22 -23.5 -59.5t-62.5 -82.5t-90 -93t-106 -90q9 1 18 1.5t20 0.5q23 0 60 -12t72 -35t60.5 -58t25.5 -80q0 -29 -18.5 -69t-49 -82t-69.5 -83t-80 -73t-81 -52t-72 -20q-16 0 -38.5 3.5t-43.5 11t-35.5 18.5t-14.5 25t8 11t21 -12.5t30 -20t36 -10.5 q23 0 58 18.5t74.5 49.5t79.5 70t71.5 79.5t51.5 79.5t20 69q0 24 -10.5 49t-29.5 45.5t-46 33.5t-61 13q-31 0 -68.5 -7.5t-66.5 -20.5q-15 -6 -26 -4.5t-18.5 7.5t-10.5 14t-2 13q92 55 161 114t114.5 110.5t68.5 91t23 54.5q-4 1 -8 3q-10 4 -25 4q-48 0 -81 -11.5 t-55 -26t-36 -26t-24 -11.5q-14 0 -22 4.5t-13 10.5q-5 7 -8 16q30 21 62 35.5t62 23.5t57.5 13t50.5 4q22 0 39 -6t28.5 -15t17 -19t5.5 -17z" />
<glyph unicode="4" horiz-adv-x="526" d="M486 749q7 4 14.5 0t12.5 -10q6 -7 12 -18q-48 -69 -91 -143.5t-80 -147.5t-67 -142t-51 -127t-32.5 -101t-11.5 -65q0 -13 -1 -20t-3 -11t-4 -6q-20 0 -30 5q-5 3 -9 6q0 36 9.5 80.5t26 94t38 102t46.5 105.5q-6 1 -8 6q-2 2 -2 3q-41 -1 -81 -5q-34 -3 -71 -8.5 t-63 -13.5q-11 1 -20 5q-8 2 -13.5 6.5t-5.5 9.5q0 8 16.5 46t41.5 90.5t55.5 113t59 115t51.5 95.5t33 55q-2 -2 -6 -3q-3 -1 -6.5 -2t-7.5 1q-4 1 -1 7t9 13t13 13t12 6q4 1 11.5 -2t14 -7.5t11 -9.5t2.5 -9q-63 -116 -115 -217q-22 -43 -44.5 -87t-41.5 -83t-33 -70.5 t-20 -49.5q29 6 58 10q25 4 54 7t53 3q21 0 35 -3t23 -7q28 57 57 111.5t56.5 102.5t51.5 88t42 68z" />
<glyph unicode="5" horiz-adv-x="690" d="M333 451q71 -10 104 -41.5t33 -71.5q0 -34 -23.5 -76t-61 -85t-84 -84t-92 -72.5t-85.5 -51t-65 -19.5q-17 0 -28.5 3.5t-18.5 8.5t-10 9.5t-3 7.5q0 5 4 11q2 3 5 5q1 4 4 8q6 7 11 6q3 -2 5.5 -5.5t4.5 -8.5l4 -12q31 0 72 21.5t85 55t86.5 76t76 85t54.5 80t21 62.5 q0 8 -6 18t-17 19t-28.5 15t-39.5 6q-59 0 -105 -16t-78 -36.5t-50.5 -39t-22.5 -23.5l-2 -2q-2 1 -9 -6t-14 -7t-17 6t-10 14t5 11q3 2 6 3q6 14 22 45t38.5 72t48.5 88.5t53 95.5q62 112 139 245q-4 1 -1 8.5t9.5 15.5t13.5 14.5t11 4.5q17 -8 23 -14t8 -11t-1 -10 l-53 -88q16 3 43 11t58 19t63.5 22.5t60 21.5t47 16.5t24.5 6.5q16 0 27 -11.5t11 -16.5q0 -4 -5 -9q-2 -2 -4 -3q-8 -1 -31 -9t-55 -19t-69.5 -24t-74 -24t-69 -19t-54.5 -10q-25 -44 -50.5 -89.5t-49.5 -89.5t-46.5 -85t-40.5 -74q28 16 57.5 26t55.5 15t47.5 5.5 t32.5 -0.5z" />
<glyph unicode="6" horiz-adv-x="619" d="M451 638q3 6 22 28.5t41 55.5t39.5 72.5t17.5 78.5q0 1 -1 3q-2 4 -4 4q-20 0 -53 -24t-73 -65.5t-84.5 -97t-87.5 -118.5t-82.5 -130t-69.5 -132t-48 -124t-18 -105q0 -4 -0.5 -18.5t1.5 -33.5v1q0 26 23.5 65t60.5 83t83 87.5t90.5 78.5t83 57t61.5 22q19 0 34.5 -6 t26.5 -15t17 -20t6 -21q0 -20 -21.5 -59.5t-56 -87t-79 -97t-90.5 -90.5t-89.5 -67t-77.5 -26q-42 0 -66 17t-36.5 38.5t-15.5 42.5t-3 29q0 57 17 123.5t46.5 137t68.5 142t83 137.5t90.5 123t90.5 99t83 66.5t69 24.5q10 0 22 -4.5t22.5 -11.5t17.5 -15.5t7 -15.5 q0 -18 -7.5 -43.5t-20 -54t-28 -57t-30.5 -51.5t-28.5 -37t-21.5 -14q-11 3 -19 7q-7 3 -12 7.5t-1 10.5zM478 397q-17 0 -52.5 -21t-79.5 -55t-91 -77.5t-85 -88.5t-63 -87t-25 -74q0 -8 3 -17t10 -14q2 -1 7 -1q32 0 73.5 26t84.5 66.5t84.5 89t73.5 93.5t52 81t20 51 q0 5 -2 16.5t-10 11.5z" />
<glyph unicode="7" horiz-adv-x="708" d="M678 946q14 -8 19 -14.5t7 -11.5q2 -6 -1 -11q-26 -18 -77 -62t-114.5 -106.5t-133 -139t-132.5 -160.5q14 -1 23 -4.5t14 -7.5q6 -5 9 -11l-24 -6q-11 -2 -24.5 -5t-27.5 -6q-37 -52 -68 -104.5t-54 -104.5t-36 -102t-13 -96l2 -46q-18 0 -27.5 6t-13.5 13.5t-4.5 15 t-0.5 10.5q0 24 7 62.5t24 89.5t46 112.5t73 131.5q-13 0 -21.5 4.5t-13.5 9.5q-6 6 -10 14q11 2 23 6q11 3 24.5 6t27.5 6q67 100 166 210t240 228q-24 -7 -57 -15.5t-68 -16t-68.5 -12.5t-59.5 -5q-36 0 -58 8.5t-33.5 19t-15 20t-2.5 11.5q3 4 9 1t15.5 -8t24 -9.5 t34.5 -4.5q45 0 97 8t103 20.5t95.5 27t74.5 28.5z" />
<glyph unicode="8" horiz-adv-x="637" d="M379 397q0 -4 -3 -5q29 -14 48 -34.5t19 -51.5q0 -19 -15 -52.5t-40 -73t-59 -79.5t-72.5 -73t-79 -54t-78.5 -21q-14 0 -31 3.5t-32 14t-25 29.5t-10 49q0 33 18 81.5t46.5 101.5t63.5 104.5t70 90.5q-29 8 -48.5 19.5t-19.5 28.5q0 25 26 66.5t67.5 89t93.5 95.5 t103.5 87t97 63.5t75.5 24.5q15 0 29 -12t14 -23q0 -15 -19 -52t-48 -84.5t-62 -100t-62 -99.5t-48 -83t-19 -50zM261 428q23 -5 46.5 -11.5t46.5 -14.5q-2 4 -2 8q0 21 18 59.5t44.5 84.5t58 96t58 93.5t44.5 77.5t18 48q-21 -3 -60.5 -27.5t-86 -61t-95 -81t-88 -88.5 t-64.5 -83.5t-25 -64.5q0 -7 10.5 -12.5t27.5 -10.5q26 26 49 42t41 16q17 0 30.5 -7t13.5 -14t-13.5 -6t-30.5 -8q-6 -3 -16.5 -12t-24.5 -23zM407 311q0 24 -14.5 40t-37 28t-51 20t-56.5 15q-30 -32 -65.5 -77.5t-67 -96.5t-52.5 -103.5t-21 -96.5q0 -3 1.5 -14t6 -22.5 t13 -20.5t23.5 -9q28 0 62.5 20.5t70 52.5t69.5 71.5t60.5 77t42.5 68.5t16 47z" />
<glyph unicode="9" horiz-adv-x="694" d="M649 847q6 9 14.5 5.5t16.5 -11.5q9 -10 18 -25q-26 -31 -47 -78.5t-47.5 -110.5t-64 -142t-96.5 -173q-59 -95 -117.5 -163t-107 -112t-82.5 -65t-46 -21q-23 0 -40.5 5.5t-33.5 14.5q-14 8 -10 18q2 4 6 9q10 -9 19 -12.5t16 -5.5q8 -2 14 -1q87 57 154 125 t119.5 142.5t94 152t77.5 153.5q-51 -54 -106 -105.5t-107.5 -92.5t-99.5 -66t-80 -25q-18 0 -37 9t-34 24t-24.5 34t-9.5 39q0 55 27.5 115.5t71.5 119.5t98 112.5t108 94t101.5 64.5t77.5 24q19 0 36.5 -7t30.5 -17.5t21 -23t8 -22.5q0 -3 -3.5 -3t-8 1.5t-9.5 4.5t-7 5 q-2 3 -5 7t-7.5 8.5t-11.5 7.5t-19 3q-27 0 -71.5 -24t-96.5 -64.5t-105 -93.5t-96 -110t-70 -114t-27 -106q0 -5 2.5 -14.5t8 -19t13 -17t18.5 -7.5q16 0 53 15.5t96 59t140.5 121t188.5 202.5q19 42 38.5 81t39.5 75z" />
<glyph unicode=":" horiz-adv-x="77" d="M38 398q13 0 21.5 -10.5t8.5 -25.5q0 -14 -8.5 -24.5t-21.5 -10.5t-21.5 10.5t-8.5 24.5q0 15 8.5 25.5t21.5 10.5zM38 172q13 0 21.5 -10.5t8.5 -25.5q0 -14 -8.5 -24.5t-21.5 -10.5t-21.5 10.5t-8.5 24.5q0 15 8.5 25.5t21.5 10.5z" />
<glyph unicode=";" horiz-adv-x="81" d="M38 398q13 0 21.5 -10.5t8.5 -25.5q0 -14 -8.5 -24.5t-21.5 -10.5t-21.5 10.5t-8.5 24.5q0 15 8.5 25.5t21.5 10.5zM36 158q13 0 20.5 -4.5t11 -11t4.5 -13.5t1 -13q0 -14 -11 -28t-22 -17q-10 -3 -17 1q-4 2 -7 5q10 3 15 13q3 4 5 11q-14 0 -20 9t-5.5 19.5t7 19.5 t18.5 9z" />
<glyph unicode="&#x3c;" horiz-adv-x="449" d="M392 533q28 -11 28.5 -26.5t-13.5 -25.5q-4 -3 -20 -17t-39.5 -35t-52.5 -46.5t-59 -52.5q-70 -62 -156 -141q62 -53 112 -97q21 -19 42.5 -37.5t39 -34t29.5 -26.5t16 -15q7 -8 6 -13t-5.5 -8t-10.5 -3t-8 3q-2 2 -15.5 14t-34 30t-45.5 40t-49.5 43t-45.5 38.5 t-34 28.5q-20 15 -31 26t-16 18q-6 8 -7 13q9 6 29 23t48 41t60 52.5t65 57.5q76 68 167 150z" />
<glyph unicode="=" horiz-adv-x="318" d="M278 428q4 -5 8 -9q3 -4 5.5 -9.5t2.5 -10.5q0 -11 -10 -9t-17 3q-3 0 -27.5 1.5t-57.5 1.5t-68.5 -1t-62.5 -5q-2 1 -5 3q-5 3 -10 11q-15 20 -9 20q31 4 71 6q34 2 80 2t100 -4zM278 339q4 -4 8 -9q3 -5 5.5 -10.5t2.5 -10.5q0 -11 -10 -8.5t-17 3.5q-3 0 -27.5 1 t-57.5 1.5t-68.5 -0.5t-62.5 -5q-2 1 -5 3q-5 3 -10 11q-14 18 -9 20q31 4 71 6q34 2 80 2t100 -4z" />
<glyph unicode="&#x3e;" horiz-adv-x="449" d="M56 -41q-14 6 -21 13t-8 14t3 13.5t11 11.5q4 3 20 16.5t39.5 34.5t52.5 47t59 53q70 62 156 141q-62 53 -112 97q-21 19 -42.5 37.5t-39 34t-29.5 26.5t-16 15q-7 8 -6 13t5.5 8t10.5 3t8 -3q1 -2 15 -14t34.5 -30t45.5 -40t49.5 -43l45.5 -39t34 -28q20 -16 30.5 -26.5 t15.5 -17.5q6 -8 8 -13q-9 -6 -29.5 -23t-48 -41t-60 -52.5t-64.5 -57.5q-77 -68 -167 -150z" />
<glyph unicode="?" horiz-adv-x="849" d="M824 785q0 -26 -30 -60.5t-79.5 -74.5t-112 -85t-128.5 -91t-128.5 -91.5t-112 -88t-79.5 -79.5t-30 -66q0 -8 6 -26t12 -25q-7 -2 -14 -2q-6 0 -12.5 1.5t-10.5 8.5q-8 14 -14.5 33.5t-6.5 42.5q0 24 30.5 59.5t80 78t113 89.5t129.5 94t129.5 92t113 84t80 69t30.5 47 q0 4 -0.5 10.5t-9 12.5t-29.5 10t-63 4q-34 0 -80.5 -10.5t-97 -29t-99.5 -44.5t-88 -57t-63 -66.5t-24 -73.5q-25 7 -31.5 21t-6.5 22q0 19 19 47t53 58.5t80.5 60.5t101 53.5t116 38.5t124.5 15q20 0 43 -4.5t43 -14.5t33 -25.5t13 -37.5zM78 46q12 -6 18 -10t8.5 -8t2 -8 t-1.5 -11q-2 -7 -9.5 -17.5t-15.5 -20.5q-10 -11 -22 -24q-10 0 -15.5 4.5t-9.5 10.5t-7 15q15 14 22 26.5t11.5 22t8 15t10.5 5.5z" />
<glyph unicode="@" horiz-adv-x="746" d="M508 700q34 0 73 -10.5t72 -32.5t55 -54.5t22 -75.5q0 -55 -17 -112t-44 -111.5t-60 -103t-65 -84.5t-59.5 -57t-42.5 -21q-11 0 -23 4.5t-22.5 12t-17.5 18.5t-7 24q0 29 7 62t18 66q-32 -41 -68 -79.5t-69.5 -68.5t-62.5 -48.5t-47 -18.5q-9 0 -22.5 4t-26 11.5 t-21.5 17.5t-9 22q0 33 19 76t50 88t70 88t78.5 77t75.5 54.5t62 20.5q38 0 59.5 -15.5t22.5 -32.5q6 -4 10 -11q2 -4 3 -7q0 -4 -16.5 -36t-37 -78t-37 -99.5t-16.5 -99.5q0 -6 1.5 -13.5t8.5 -7.5t30 19.5t52.5 53t62 78t60 94.5t45 103t17.5 103q0 22 -4.5 47t-19 45.5 t-42 34t-73.5 13.5q-68 0 -137 -28.5t-132 -76.5t-118 -112.5t-95.5 -137t-63.5 -148.5t-23 -147q0 -41 8.5 -82t22.5 -73.5t31.5 -53t35.5 -20.5q6 0 6 -4.5t-5 -4.5q-38 0 -65 27.5t-43.5 66.5t-24 81t-7.5 70q0 87 28 171t73.5 160t105 140.5t122 111.5t124.5 73.5 t113 26.5zM128 45q22 0 58 28.5t77 72t82 93.5t71.5 93.5t46.5 72t7 28.5q-31 0 -69 -20.5t-77.5 -53t-77 -74t-67 -84t-47.5 -82t-18 -67.5q0 -1 2.5 -4t11.5 -3z" />
<glyph unicode="A" horiz-adv-x="696" d="M320 -373q0 42 11.5 104t31 136.5t46.5 158.5t57 171q-38 1 -83 1t-92 1q-51 -80 -97 -154t-82 -134q-13 -20 -30.5 -34.5t-43.5 -14.5q-23 0 -30 9q-4 4 -5 9q5 -1 11 2q5 2 11 6.5t13 12.5q10 11 28 38t43.5 66.5t56.5 88.5t67 105q-46 1 -84.5 1t-61.5 -1 q-19 -1 -27.5 5.5t-11.5 14.5q-4 9 -1 20q30 0 65 1q30 1 68.5 1t80.5 1q54 82 113.5 170t120 170t120 151.5t112.5 115.5q10 0 20.5 -1t18.5 -4t11.5 -7t0.5 -10q-21 -42 -49 -104.5t-60 -139t-65.5 -163t-65.5 -176.5q12 -3 17 -11t7 -16q2 -10 1 -21h-11h-13t-18 1 q-27 -80 -51.5 -159.5t-43.5 -153t-30.5 -139t-14.5 -118.5q0 -8 -10 -11t-21.5 -2.5t-20.5 4t-9 9.5zM320 243q48 1 90.5 1.5t71.5 0.5q23 66 47.5 130.5t48 125t46.5 115.5t43 102q-34 -35 -75 -86.5t-86 -114t-92.5 -133t-93.5 -141.5z" />
<glyph unicode="B" horiz-adv-x="723" d="M114 -114q-23 0 -38.5 10.5t-17.5 16.5q0 21 6 50q-14 5 -18 8.5t5 3.5q10 0 15 1q13 57 41.5 134t65.5 160q-12 6 -15.5 13.5t-3.5 9.5q0 10 13 21t36 22q27 59 55.5 115.5t55 105t49.5 86.5t39 60q31 -10 37 -21.5t2 -17.5q-51 -73 -94.5 -150.5t-78.5 -152.5 q17 5 35.5 9t37.5 6q43 27 91 61.5t95.5 72t90.5 76t76.5 74.5t53 66.5t19.5 51.5q0 17 -22.5 22t-60.5 5q-83 0 -161.5 -21.5t-148 -55.5t-127.5 -75t-100 -79t-65.5 -69t-23.5 -45q0 -6 2.5 -9.5t5.5 -5.5t5.5 -4.5t2.5 -7.5q-20 -2 -40.5 7t-25.5 23q0 29 27 68t73.5 81 t110 83t135.5 73.5t149.5 52.5t153.5 20q80 0 118 -27t38 -62q0 -32 -35 -78t-90.5 -97.5t-123 -104t-133.5 -95.5q35 -3 67.5 -12.5t57 -24t39.5 -32.5t15 -39q0 -28 -24 -62t-64 -68.5t-92 -67t-106.5 -57.5t-108 -40.5t-97.5 -16.5q-6 -21 -6 -25q0 -5 2 -13t4 -15.5 t1.5 -12.5t-5.5 -5zM126 -15q45 11 95 31t98 46.5t92.5 56t77.5 59t53 57t20 49.5q0 21 -15 33.5t-39 19.5t-53 9t-57 2h-13q-49 -30 -90 -51t-68 -29q-38 -91 -63 -164.5t-38 -118.5z" />
<glyph unicode="C" d="M166 -141q-77 0 -116.5 46t-39.5 127q0 68 33.5 155.5t89 179.5t125.5 181t143.5 158.5t144 112t125.5 42.5q47 0 75.5 -21t28.5 -50q0 -15 -10.5 -52t-31.5 -87t-52.5 -108.5t-73.5 -117.5q-5 -8 -14 -9t-18 1t-17.5 7t-12.5 9q47 71 85 137q16 28 31.5 57t27.5 57 t20 52t9 41q5 49 -18 49q-30 0 -73 -23.5t-93 -64t-103.5 -96t-105 -118.5t-97.5 -131t-81 -135.5t-55.5 -130.5t-20.5 -116q0 -11 3.5 -32t14 -42.5t29 -37.5t47.5 -16q58 0 157.5 68t247.5 215q19 17 29.5 20t12.5 -3.5t-3.5 -19t-18.5 -25.5q-74 -84 -136.5 -138 t-115 -85.5t-95 -43.5t-77.5 -12z" />
<glyph unicode="D" horiz-adv-x="794" d="M103 -91q-16 0 -33.5 4.5t-31.5 12t-23.5 16.5t-9.5 18q0 18 7.5 36t12.5 26q3 7 9 9.5t11.5 1t7.5 -7t-2 -14.5q-6 -14 -8 -28t1.5 -25t14 -18.5t29.5 -7.5q24 0 67.5 21t98 57t116 85t122 105.5t116 117t98 120.5t68 116t25.5 103q0 29 -12 59t-36.5 54t-61.5 39.5 t-86 15.5q-74 0 -143 -21.5t-129 -55.5t-109.5 -77t-84.5 -87t-54.5 -83.5t-19.5 -67.5q0 -6 4 -9.5t7 -6.5q9 -5 0 -7q-22 0 -34 5t-17.5 11.5t-6.5 12.5t-1 8q0 26 18 66t52.5 85t85 90t115.5 81.5t144.5 59.5t172.5 23q63 0 109 -21t76 -53.5t44.5 -72t14.5 -76.5 q0 -40 -24 -92t-65.5 -110t-96 -119t-115.5 -118.5t-124.5 -108.5t-122.5 -89.5t-110 -60.5t-86 -22zM103 -37q-8 1 -14.5 4.5t-11.5 6.5l-12 8q11 45 30 100t43 114.5t50.5 120t52.5 117.5q61 133 132 272q31 -1 38.5 -10.5t6.5 -18.5q-36 -60 -71.5 -131.5t-67.5 -145 t-60 -143t-48.5 -124.5t-33 -91t-14.5 -41q-5 -17 -6 -28.5t-14 -9.5z" />
<glyph unicode="E" horiz-adv-x="669" d="M869 831q10 -1 15 -7.5t5 -13.5t-3 -13t-9 -6q-105 -2 -203 -15.5t-181 -30.5q-48 -72 -96.5 -155.5t-93.5 -168.5q56 14 123.5 22.5t147.5 4.5q12 0 16.5 -4t2 -9.5t-12 -9.5t-25.5 -4q-80 0 -152 -16.5t-129 -38.5q-37 -73 -68.5 -142t-55 -127.5t-38 -103t-15.5 -68.5 q34 13 80.5 28t100.5 28t112 21.5t117 8.5q11 0 18 -4t10.5 -10.5t5 -14t1.5 -14.5q-66 1 -139 -7q-63 -7 -141 -23t-158 -47q4 -11 5 -18t-7 -9q-20 0 -32 12q-20 -8 -39 -18q-3 -1 -6 0q-2 1 -5 2t-5 6q-3 5 -3 10t2 9t10 9q3 2 10.5 5.5t19.5 8.5q-1 5 -1.5 10.5 t-0.5 10.5q0 27 11.5 69.5t32 96t48 114.5t60.5 126q-18 -9 -32 -17t-24 -14q-11 -7 -19.5 -4t-13.5 9q-7 7 -11 19q16 14 49.5 34t84.5 38q45 87 93.5 171t95.5 159q-64 -16 -108 -29t-63 -19q-18 -6 -29 -3t-17 9q-7 7 -10 19q61 23 127.5 41.5t132.5 32.5l27 40.5 t26 36.5q6 7 14.5 6.5t16 -6t11.5 -13.5t0 -14l-27 -36q62 11 119 18.5t102.5 12t77 5.5t42.5 0z" />
<glyph unicode="F" horiz-adv-x="539" d="M826 826q10 -1 15 -7.5t5 -13.5t-3 -13t-9 -6q-104 0 -202 -13t-180 -31q-49 -72 -98 -156t-94 -170q56 14 123.5 22.5t147.5 4.5q12 0 16.5 -4t2 -9.5t-12 -9.5t-25.5 -4q-80 0 -152 -16.5t-129 -38.5q-38 -75 -70.5 -146t-56 -130.5t-37 -103.5t-13.5 -66q0 -8 3.5 -17 t6 -17.5t2.5 -14.5t-7 -7q-15 0 -24.5 6t-15 15.5t-8 21t-2.5 22.5q0 27 11 69.5t31 95.5t47.5 113.5t59.5 125.5q-34 -16 -53 -29q-11 -7 -19.5 -4t-13.5 9q-7 7 -11 19q16 14 48.5 33.5t81.5 37.5q45 88 94 172.5t97 159.5q-63 -16 -107 -29.5t-62 -19.5t-29 -3t-17 9 q-7 7 -10 19q60 23 126 41.5t132 32.5q14 21 27.5 40.5t27.5 36.5q6 7 14.5 6.5t16 -6t11.5 -13.5t0 -14q-7 -9 -13.5 -18t-13.5 -19q62 11 119 18.5t102.5 12t77 6t42.5 0.5z" />
<glyph unicode="G" horiz-adv-x="884" d="M169 -156q-27 0 -54.5 12t-50 34.5t-37 54.5t-14.5 72q0 88 38.5 183t100.5 186.5t140.5 174t159 145t155 99t129.5 36.5q58 0 92 -21.5t34 -53.5q0 -40 -23 -87t-60.5 -97t-84.5 -100t-94 -95q-7 -6 -15.5 -7t-17.5 1t-17 6t-12 8q6 1 29 21.5t54.5 52.5t67 72.5 t65 81.5t49 79.5t19.5 67.5q2 24 -16 36.5t-40 12.5q-40 0 -107 -32.5t-144.5 -90t-157 -135t-143.5 -168t-104.5 -189.5t-40.5 -199q0 -16 6.5 -39.5t19.5 -45t33.5 -37t47.5 -15.5q40 0 90 27.5t109 75.5t126 112.5t141 137.5q-21 -3 -46 -8.5t-49.5 -12t-46.5 -13 t-35 -10.5q-15 -5 -23.5 -1.5t-13.5 9.5q-5 7 -7 17q40 16 93 28t103.5 20t90 12t53.5 4t21 -5.5t10 -11.5q4 -8 4 -17l-70 -3q-48 -72 -77 -132t-44 -105q-18 -52 -25 -94q-22 -2 -32.5 0.5t-15.5 6.5t-6 11q0 18 8 44.5t21 57t28 62t30 58.5q-133 -143 -245 -218.5 t-199 -75.5z" />
<glyph unicode="H" horiz-adv-x="940" d="M1005 801q0 -11 -16 -48t-43 -92t-61 -124t-69 -143t-69 -149.5t-61 -144t-43 -126t-16 -95.5q0 -3 2.5 -7l5 -8t3.5 -6.5t-2 -3.5q-29 -6 -44.5 3t-15.5 37q0 42 17 103t45 132.5t62.5 148.5t70.5 151h-1q-132 -22 -230.5 -42t-173.5 -38q-35 -78 -68 -152.5 t-58.5 -136.5t-41 -106t-15.5 -59q-31 -6 -42.5 2t-11.5 16q0 12 14 50.5t37 95.5t53.5 127t63.5 145q-65 -18 -108 -33t-70 -27t-41 -20.5t-23 -12.5q-14 -7 -23 -3.5t-14 10.5q-6 8 -10 21q0 11 79.5 44t232.5 74q37 83 72 162.5t63 144t45 106.5t17 50q6 0 14.5 -1.5 t16.5 -5.5t13.5 -10.5t5.5 -15.5q0 -8 -15 -45.5t-40 -94t-57 -127.5t-66 -146q85 20 185.5 39t218.5 35q29 60 55.5 113.5t47 95t32.5 68.5t12 35q-14 -2 -17 1q-2 2 -1 4q1 4 4.5 11t10 14t14.5 12t18 5q19 0 27.5 -10t8.5 -23z" />
<glyph unicode="I" horiz-adv-x="433" d="M595 842q14 -2 20 -9t8 -14q2 -9 0 -18q-3 1 -7 3q-10 4 -21 4q-32 0 -66.5 -10t-65 -23t-54.5 -26t-35 -18t-19 -1t-13 11q-6 8 -11 20q35 22 72 39t72 27.5t66 14t54 0.5zM504 723q1 -10 -13.5 -43.5t-38.5 -83.5t-54.5 -111.5t-62 -128.5t-61.5 -135t-53 -130 t-36 -114t-11 -87q0 -1 2 -5q17 5 35 8.5t39 7.5q14 2 15 -6t-8 -13q-5 -2 -30 -11t-58 -21.5t-67 -27.5t-58 -30q-2 -1 -8 -2.5t-12 -1.5t-11 1.5t-5 5.5q0 11 28 33.5t99 45.5q-11 9 -13 30q-2 36 10.5 88t34.5 113t51 127.5t59.5 131t60 123.5t52.5 106t37 78t13 39 q-14 -2 -17 1q-2 2 -1 4q0 3 3.5 9t9.5 12.5t14 11t17 4.5q19 0 28 -9t10 -20z" />
<glyph unicode="J" horiz-adv-x="620" d="M143 -199q-5 0 -16.5 0.5t-23.5 4.5t-21.5 12t-9.5 23q0 21 7 55.5t24 75.5t44.5 84.5t68.5 82.5q4 3 10 2.5t8.5 -6t0 -15t-15.5 -23.5t-29.5 -43.5t-31 -62.5t-24.5 -64.5t-10 -50.5t1 -28t3 -12q2 -4 4 -2q10 0 35 25t59.5 68t75 100.5t81.5 123t79 135.5t67.5 137 t47.5 128.5t18 109.5q0 33 -9.5 62t-27 50t-42 33t-54.5 12q-35 0 -78 -19.5t-87.5 -52.5t-87 -75t-76 -87t-53.5 -89.5t-20 -81.5q-49 -15 -49 10q0 30 18 73t49 90t73.5 93t91.5 82.5t102 59t107 22.5q41 0 76 -14t61 -37.5t41 -53.5t15 -62q0 -56 -17.5 -123t-47 -139 t-68 -145t-81 -141.5t-86 -128t-82 -103.5t-70 -69.5t-50.5 -25.5z" />
<glyph unicode="K" horiz-adv-x="544" d="M58 -161q-15 0 -24.5 6t-15.5 15.5t-8.5 21t-1.5 22.5q3 48 24 129t53 181h-3q-14 1 -21 7t-9 13t0.5 12.5t7.5 5.5q14 0 42 11q24 73 52 149.5t57.5 151.5t58.5 145t56 129q6 7 14.5 5.5t15 -7t10 -14t-0.5 -14.5q-23 -51 -48 -112.5t-50.5 -128t-51 -135.5t-48.5 -135 q52 31 117 77t132 98.5t130.5 107.5t113.5 104t80 86.5t30 56.5q0 9 6.5 11t14 -3t13.5 -16t6 -26q0 -16 -32 -54t-84.5 -88t-119.5 -107.5t-137 -112t-137 -101.5t-120 -77q9 -41 28.5 -81.5t44 -78t52 -70t53 -56.5t47 -37.5t33.5 -13.5q15 0 11.5 -6.5t-18.5 -6.5 q-28 0 -58.5 16t-60.5 42t-57.5 59.5t-51 67.5t-40.5 66.5t-25 57.5q-19 -56 -34.5 -106t-27 -91t-17.5 -72t-6 -48q0 -8 3.5 -17t6 -17.5t2.5 -14.5t-7 -7z" />
<glyph unicode="L" horiz-adv-x="400" d="M181 -192q-38 0 -70 11t-54.5 30.5t-35 45.5t-12.5 56q0 50 20.5 123t53.5 157t74 173t81.5 172t76 153.5t58.5 117.5q10 2 20 0.5t17.5 -6t10.5 -12.5t-3 -19q-46 -85 -89.5 -171t-82 -169t-71 -160.5t-56 -144.5t-36.5 -122t-13 -92q0 -33 11.5 -56.5t29.5 -38.5 t41 -22t46 -7t52.5 8.5t57 19.5t49 22t30.5 16t15.5 4.5t9 -3.5t0.5 -7.5t-11 -8.5q-6 -3 -27 -14t-51 -23.5t-67 -22.5t-75 -10z" />
<glyph unicode="M" horiz-adv-x="1042" d="M47 -172q-16 0 -28 23.5t-12 58.5q0 52 13 117.5t35 137.5t49.5 147t56.5 145q68 165 155 339q15 -4 26 -8q10 -5 18.5 -11t8.5 -17q0 -8 -2.5 -13t-4.5 -7q-3 -4 -6 -4q-45 -68 -85.5 -148.5t-74.5 -163.5t-61.5 -163.5t-46.5 -149t-29.5 -120t-10.5 -75.5 q0 -14 2.5 -25.5t4.5 -19.5q21 97 62 207t93 219t111.5 209t116.5 176.5t107 122t84 45.5q6 0 15.5 -3.5t17.5 -10t14 -16.5t6 -22q0 -56 -14 -123.5t-35 -139.5t-45.5 -144.5t-46.5 -138t-37 -120t-16 -90.5q48 85 100.5 173t105.5 170.5t104.5 154.5t96.5 126t80.5 85.5 t57.5 31.5q7 0 13 -4.5t10 -11t6.5 -13.5t2.5 -12q0 -11 -13.5 -48t-36 -91.5t-51 -122t-58 -138t-58 -140t-51 -129t-36 -104t-13.5 -64.5q-11 0 -20 2q-8 2 -13.5 6t-5.5 12q0 19 13 62t34 100.5t48.5 125t56 136t56 133t49 116t34.5 86t13 42.5q-74 -61 -136.5 -139 t-114 -159t-93 -158.5t-74.5 -138.5t-58 -98t-42 -37t-32 16t-15 36q0 29 15 85.5t37 127.5t48 150.5t48 155t37 139.5t15 105q-30 0 -68.5 -30.5t-81 -82.5t-87.5 -121t-88 -146t-83 -158.5t-72 -157.5t-55 -142.5t-33 -114.5q-3 -13 -8.5 -19.5t-10.5 -8.5q-6 -3 -14 -2z " />
<glyph unicode="N" horiz-adv-x="822" d="M62 -157q-26 0 -40 11.5t-14 34.5q0 42 15.5 113t41 156.5t59 180t70 184t73 168t68.5 132.5q12 -2 21 -6q8 -4 12 -10t-1 -14q-14 -22 -34.5 -64.5t-45 -98.5t-51.5 -122t-52.5 -135t-49 -138t-41 -130.5t-28 -112t-10.5 -83.5v-27q1 -3 2 -7t3 -4q4 0 17 18.5t29 67.5 q39 122 91 235.5t110 213t119 181.5t119 140.5t110 91t91 32.5q6 0 16 -2t19.5 -7.5t17 -15t7.5 -23.5q0 -18 -15 -66.5t-37 -115t-48 -144.5t-48 -154.5t-37 -145.5t-15 -117q0 -8 1 -21.5t4 -28.5t7.5 -29t11.5 -24t3.5 -16.5t-11.5 -9t-18 1.5t-16 15q-12 23 -19.5 50 t-7.5 53q0 66 14.5 141t37 151t48 148.5t48 133.5t37 106.5t14.5 66.5v5v8t-1 7.5t-3 3.5q-29 0 -75 -30.5t-102 -87.5t-118 -139t-122.5 -185.5t-115.5 -227t-97 -263.5q-9 -29 -27 -37.5t-37 -8.5z" />
<glyph unicode="O" d="M167 -132q-26 0 -52.5 5.5t-48.5 20t-37 40.5t-18 68q-3 47 5 106t23.5 120t38 119t48.5 103.5t54.5 73t56.5 27.5h7q35 65 76 123.5t83.5 103t86 71t84.5 26.5q35 0 59.5 -11t40.5 -29.5t23 -43t7 -50.5q0 -69 -25.5 -160.5t-68.5 -188.5t-98 -191t-115 -168 t-119.5 -119.5t-110.5 -45.5zM150 -111q28 0 64.5 24.5t77.5 67t83.5 100t82.5 124.5t75.5 139t62 144t42 140t15.5 127q0 1 -2 16t-9.5 32.5t-21 31.5t-36.5 14q-32 0 -69.5 -26t-76.5 -69.5t-77.5 -101t-73.5 -120.5q7 -7 11 -15q1 -4 -19 -1q-29 -54 -54 -109.5 t-43 -106.5t-28.5 -95t-10.5 -77q0 -20 0.5 -33t2 -23t4.5 -20t7 -24q1 -4 0 -8.5t-4.5 -7t-9 -0.5t-12.5 11q-14 18 -23 45t-9 57q0 33 9 77t25 94.5t39 104.5t50 108q-9 -8 -34.5 -47.5t-52.5 -107t-48 -161t-21 -208.5v-1q0 -5 3.5 -26t18.5 -44q10 -11 24.5 -18t37.5 -7 z" />
<glyph unicode="P" horiz-adv-x="622" d="M53 -113q-23 1 -33.5 5.5t-12.5 10.5q0 16 6.5 43.5t17.5 62.5t27 77.5t34 88.5q-2 6 -2 10q0 16 4.5 19t9.5 -1q32 79 69.5 161.5t73 155.5t67 130t51.5 85q31 -10 37 -21.5t2 -17.5q-42 -65 -79.5 -135.5t-71 -141t-62 -138.5t-51.5 -127q20 -15 43 -15q36 0 81.5 28 t92.5 73t92 102.5t80 117t56.5 115t21.5 97.5q0 41 -17 67.5t-42 42t-54 21.5t-53 6q-54 0 -104.5 -16t-94.5 -43t-80.5 -60.5t-62.5 -68.5t-40.5 -68.5t-14.5 -58.5q1 -10 5.5 -15.5t-9.5 -5.5q-20 0 -27 10t-7 18q0 20 11 52.5t34.5 70t59.5 75t85.5 68t113 50t141.5 19.5 q51 0 88.5 -15.5t61.5 -41.5t35.5 -59.5t11.5 -69.5q0 -43 -21.5 -99t-57 -115.5t-81 -117t-94 -103t-96 -73.5t-85.5 -28q-20 0 -41 6t-38 15q-18 -46 -31.5 -85t-23 -67.5t-14.5 -45t-5 -19.5q-1 -11 -1.5 -21t-5.5 -10z" />
<glyph unicode="Q" d="M165 -133q-26 0 -52.5 5.5t-48.5 20t-37 40.5t-18 68q-3 47 5 106t23.5 120t38 119t48.5 103.5t54.5 73t56.5 27.5h7q36 65 76.5 123.5t83 103t86 71t84.5 26.5q35 0 59.5 -11.5t40.5 -30t23 -43t7 -50.5q0 -69 -25.5 -160t-68.5 -188t-98 -191t-115 -168t-119.5 -119.5 t-110.5 -45.5zM149 -112q28 0 64.5 24.5t77 67t83 100t82.5 124.5t75.5 139t62 144t42 140t15.5 127q0 1 -2 16t-9 32.5t-20.5 31.5t-36.5 14q-32 0 -69.5 -26t-76.5 -69.5t-77.5 -101t-73.5 -120.5q8 -10 10 -15q2 -3 -4 -3t-15 2q-29 -54 -54 -109.5t-43 -106.5t-28.5 -95 t-10.5 -77q0 -20 0.5 -33t2.5 -23.5t4.5 -20.5t7.5 -23q1 -4 0 -9t-4.5 -7t-9 0t-12.5 11q-14 18 -23.5 45t-9.5 57q0 33 9 77t25 94.5t39 104.5t50 108q-9 -8 -34.5 -47.5t-52.5 -107t-48 -161t-21 -208.5v-1q0 -3 1 -10t3 -17t6.5 -21t12.5 -22q9 -11 24 -18t38 -7z M42 -227q-7 6 -11 12q-3 5 -4 11t7 11q7 5 34 15t67.5 17.5t92 8.5t109.5 -13q1 -1 -1 -3q-4 -4 -18 -5q-9 -1 -40 -2t-72 -5.5t-85 -15.5t-79 -31z" />
<glyph unicode="R" horiz-adv-x="608" d="M381 -153q-36 0 -74.5 24t-73.5 60.5t-64.5 80t-48.5 81.5q-28 -76 -42.5 -123.5t-15.5 -52.5q-1 -11 -1.5 -21t-5.5 -10q-23 1 -33.5 5.5t-12.5 10.5q0 16 6.5 43.5t17.5 62.5t27 77.5t34 88.5q-2 6 -2 10q0 16 4.5 19t9.5 -1q32 79 69.5 161.5t73 155.5t67 130t51.5 85 q31 -10 37 -21.5t2 -17.5q-42 -65 -79.5 -135t-71 -140.5t-62 -138.5t-50.5 -128v-1q8 -6 18.5 -10t23.5 -4q36 0 81.5 28t92.5 73t92 102.5t80 117t56.5 115t21.5 97.5q0 41 -17 67.5t-42 42t-54.5 21.5t-53.5 6q-54 0 -104.5 -16t-94.5 -43t-80 -60.5t-62 -68.5 t-40.5 -68.5t-14.5 -58.5q1 -10 5.5 -15.5t-9.5 -5.5q-20 0 -27 10t-7 18q0 20 11 52.5t34.5 70t59.5 75t85.5 68t113 50t141.5 19.5q51 0 88.5 -15.5t61.5 -41.5t35.5 -59.5t11.5 -69.5q0 -43 -21.5 -99t-57 -115.5t-81 -117t-94 -103t-96 -73.5t-85.5 -28q-30 0 -62 13 q23 -52 56.5 -100.5t68 -85.5t64.5 -59t46 -22q15 0 11 -6t-18 -6z" />
<glyph unicode="S" horiz-adv-x="552" d="M84 -99q-35 0 -49.5 2.5t-15.5 6.5v1q0 16 10.5 36t26.5 40t36.5 39t40 34t36.5 25.5t27 13.5q9 3 13.5 1.5t5 -4.5t-1 -7t-3.5 -5q-9 -5 -32 -24.5t-47.5 -44t-43.5 -50t-19 -41.5q19 0 45.5 11t55 29t56 40.5t50 45t36 43t13.5 35.5q0 12 -23.5 23t-58.5 23.5t-76 28.5 t-76 38.5t-58.5 52.5t-23.5 71q0 48 24.5 102t65 107.5t92 102.5t105.5 86.5t106.5 59.5t94.5 22t71.5 -19t29.5 -48q0 -27 -19.5 -66t-49.5 -82.5t-65 -87t-67 -78.5t-55 -56.5t-29 -21.5q-14 0 -22 2.5t-13 6.5t-7 10q25 23 55.5 54.5t62 67t60.5 73t52 72t36.5 65.5 t13.5 53q-1 8 -5 14q-4 5 -11 9.5t-20 4.5q-33 0 -80 -21t-97.5 -56.5t-100.5 -82t-89.5 -97.5t-64 -103.5t-24.5 -99.5q0 -39 23.5 -66t58.5 -46.5t75.5 -33.5t75.5 -27.5t58.5 -29t23.5 -36.5q0 -16 -13.5 -38t-36.5 -46.5t-52.5 -48.5t-61.5 -42.5t-64.5 -30.5t-60.5 -12 z" />
<glyph unicode="T" horiz-adv-x="606" d="M1178 800q23 -28 14.5 -36.5t-36.5 -2.5q-152 28 -280.5 31.5t-237.5 -10.5q21 -10 24.5 -19.5t0.5 -14.5q-43 -82 -84 -168t-78 -169.5t-67.5 -161t-53 -141.5t-35 -111.5t-12.5 -71.5q0 -6 2.5 -14t4 -15.5t1 -12.5t-5.5 -5q-23 1 -38.5 11.5t-17.5 16.5q0 39 18.5 107 t49 150.5t68 172.5t75.5 174t72 154.5t58 114.5q-129 -18 -227.5 -53t-168 -73t-111 -72.5t-56.5 -50.5q-11 -12 -20 -11t-16 6q-8 6 -14 18q23 33 75 74.5t130.5 81t180.5 73t224.5 51t263.5 14t297 -36.5z" />
<glyph unicode="U" horiz-adv-x="746" d="M475 -120q-49 -12 -52 1q0 40 9 93t25 113.5t37.5 126t46.5 131.5t52.5 130t54.5 122q-40 -62 -81.5 -133.5t-84 -141t-85 -132.5t-85 -109.5t-84 -71t-81.5 -16.5q-54 0 -84.5 29t-42 77.5t-7.5 112t19.5 133t39 139.5t51.5 132.5t57 112t54 76.5q10 11 21 16.5t20 7.5 t15.5 2h8.5t7.5 -1.5t11.5 -4.5t10.5 -6.5t4.5 -7.5t-5.5 -6.5t-14 -5.5t-17.5 -8t-15 -15q-5 -6 -22.5 -34t-41.5 -72.5t-50.5 -103.5t-49.5 -127.5t-37.5 -145.5t-14.5 -156q0 -35 11.5 -63t25.5 -47q9 -8 20.5 -13t26.5 -5q31 0 68 30.5t78 81t84 116t86 136t85 140.5 t80 129.5t71.5 103.5t59.5 62q8 1 17 0q8 -1 16 -5t16 -12q-47 -79 -89 -166.5t-77.5 -174.5t-65 -169t-50.5 -150.5t-33.5 -119t-15.5 -74.5q-2 -17 -2.5 -31t-1.5 -26z" />
<glyph unicode="V" horiz-adv-x="631" d="M236 -121q-15 1 -24 7.5t-13 12.5q-21 4 -21 26q0 57 13 128t32.5 149t42.5 159.5t42.5 158t32.5 144.5t13 121q0 8 -1 13t-2 7q-2 3 -3 3q-23 0 -53.5 -23t-62.5 -59t-63.5 -81.5t-56.5 -90.5t-40 -85t-15 -66v-15.5t-7 -10.5q-14 0 -28 8t-14 16q0 34 16.5 79.5 t43.5 94.5t61 96.5t69 85t67.5 61t57.5 23.5h7q12 -2 24 -7.5t21.5 -15t16 -21.5t6.5 -25q0 -65 -12.5 -135.5t-31.5 -144t-41 -149t-41.5 -150t-32.5 -146.5t-14 -139q15 0 35 30.5t45 84t55.5 124.5t66.5 151.5t77.5 167t88 169.5t99 159t110.5 136q17 -3 28 -7 q10 -4 16 -8.5t0 -12.5q-104 -123 -179.5 -247.5t-131 -239t-95 -213.5t-72.5 -171.5t-63.5 -113t-68.5 -38.5z" />
<glyph unicode="W" horiz-adv-x="926" d="M82 -98q-11 0 -23.5 1.5t-23 7.5t-17.5 17t-7 29q0 54 12 124.5t31.5 148.5t44.5 159.5t51 155.5t50.5 136.5t44.5 104.5q7 15 18 16.5t21 -4t15 -15.5t1 -18q-33 -60 -64 -137t-57.5 -159t-48.5 -163t-38 -149t-24.5 -117.5t-8.5 -68.5q0 -5 1 -7q0 -4 1 -10t2.5 -12 t4.5 -10t7 -4q16 0 41.5 36t61 98t82 144t105 173.5t129 187.5t154.5 186q9 10 17.5 7.5t16.5 -10.5q9 -9 17 -23q-43 -86 -74 -174.5t-51.5 -170.5t-31 -154t-11.5 -125t7 -84t24 -31q14 0 40.5 49.5t62.5 129.5t81 181t97 204.5t110 199t120 165.5q8 10 16 10t13.5 -6 t6 -15.5t-6.5 -19.5q-101 -150 -171 -277t-119.5 -229.5t-81.5 -180.5t-56.5 -131t-46 -79.5t-48.5 -26.5q-28 0 -46.5 10t-29.5 32t-15.5 57t-2.5 86q2 65 13 130.5t27.5 127t36.5 117t38 99.5q-80 -91 -140 -179.5t-106.5 -168.5t-82.5 -148t-67 -117.5t-60 -77.5t-62 -28 z" />
<glyph unicode="X" horiz-adv-x="586" d="M289 -107q-26 -4 -44.5 13t-18.5 62q0 63 8 124t20 121q-68 -100 -117 -180.5t-72 -128.5q-5 -7 -14 -13t-18.5 -8.5t-17 0t-8.5 14.5q62 115 131.5 226t147.5 217q17 63 35 123.5t33 116.5t24.5 107.5t9.5 98.5v10q-26 -14 -56 -43t-60 -65.5t-58 -77.5t-49.5 -80.5 t-34.5 -74t-13 -57.5q0 -5 0.5 -15.5t-6.5 -10.5q-14 0 -28 8t-14 16q0 33 17.5 79.5t46.5 96t65 98t72.5 87t70.5 62t59 23.5h2q23 -1 32.5 -15.5t9.5 -42.5q0 -71 -22.5 -154.5t-50.5 -178.5q85 106 174 199.5t182 171.5q23 2 27 -8t-6 -18q-57 -51 -112 -108.5 t-107 -117.5t-100.5 -121.5t-92.5 -121.5q-21 -80 -36 -164t-15 -173v-17.5t1.5 -20.5t5 -17t10.5 -7q25 3 56.5 31t68.5 75t79 109.5t88 134.5q8 13 14.5 16.5t9.5 0.5t2 -11.5t-8 -19.5q-19 -30 -41 -68.5t-47.5 -80t-53 -81.5t-57 -71t-61 -50.5t-63.5 -19.5z" />
<glyph unicode="Y" horiz-adv-x="506" d="M230 -85q-24 -5 -36.5 3t-14.5 14q0 44 31.5 126t83 183.5t117.5 211.5t134 211q-87 -101 -146.5 -190.5t-105 -157.5t-84 -108.5t-82.5 -43.5q-52 0 -80.5 23.5t-37.5 64t-2 94t25 113t44.5 122t55.5 120.5t58.5 108.5t54.5 85.5q10 11 20.5 16.5t19.5 7.5t16 2h9 t7.5 -1.5t11.5 -4.5t10.5 -6.5t4.5 -7.5q0 -5 -6 -7.5t-14 -5.5t-17 -8t-16 -14q-5 -6 -21 -29t-38 -60t-48 -87t-50.5 -110.5t-45 -130.5t-31.5 -147q0 -14 0.5 -30t2.5 -30q5 -16 12 -28.5t15 -22.5q8 -5 19 -5q25 0 55.5 31.5t70 85t88.5 125.5t111.5 153.5t138.5 167 t169 167.5q8 1 17 0q8 -1 16 -4.5t16 -12.5q-57 -59 -118 -141t-120 -173.5t-112 -185t-95 -175.5t-69.5 -146.5t-34.5 -96.5q-4 -17 -6 -35.5t-3 -30.5zM49 -164q-7 6 -11 12q-3 5 -4 11t7 11q7 5 34 15t67.5 17.5t92 8.5t109.5 -13q1 -1 -1 -3q-4 -4 -18 -5q-9 -1 -40 -2 t-72 -5.5t-85 -15.5t-79 -31z" />
<glyph unicode="Z" horiz-adv-x="616" d="M185 -103q-64 0 -99.5 13t-52.5 30t-20.5 32.5t-3.5 20.5q0 26 23 66.5t61 90.5t88 106.5t104 114.5q-14 -4 -27 -7.5t-25 -8.5q-13 6 -22 12q-8 5 -12 11t4 11t43 14.5t84 17.5q58 63 114 122.5t100 109.5t70.5 87t26.5 54q-2 7 -34.5 12t-89.5 5q-82 0 -143 -13.5 t-104.5 -30t-70.5 -30t-40 -13.5q-14 0 -21 4.5t-12 10.5t-7 15q44 27 103 48q51 18 124.5 33.5t170.5 15.5q64 0 101 -9.5t54 -24.5t18.5 -33t-5 -35.5t-17 -32.5t-16.5 -23q-11 -14 -35 -39.5t-57 -60t-73 -76t-82 -86.5q34 3 66 3.5t60 -2.5q1 -1 -1 -3q-4 -4 -18 -5 q-10 -2 -50 -9.5t-91 -20.5q-57 -62 -113 -125t-99.5 -118.5t-70.5 -100.5t-27 -70q0 -17 22 -35t70 -18q24 0 59.5 3.5t80 14t96.5 28t108 46.5q18 9 25 3.5t-6 -16.5q-6 -6 -35 -23.5t-73.5 -36.5t-101.5 -34t-121 -15z" />
<glyph unicode="[" horiz-adv-x="604" d="M509 807q15 0 28.5 -2.5t23 -6.5t14.5 -9t3 -10t-9 -5.5t-17 1t-22 3.5t-22 2q-11 0 -19.5 -1t-16.5 -3q-9 -2 -16 -4q-3 -8 -18 -39.5t-37 -75t-47.5 -94t-49.5 -97.5q-12 -24 -28 -57.5t-33.5 -72.5t-36 -81t-36.5 -82q-41 -94 -86 -199q8 0 31 -0.5t47 -2.5 q28 -2 60 -4q5 8 12.5 10.5t10.5 -3.5q2 -3 6.5 -6.5t9.5 -7.5t9 -7t4 -4q0 -3 -2.5 -7.5t-7.5 -2.5q-25 4 -51.5 7t-50.5 4.5t-44 2t-32 0.5q-13 0 -24.5 2t-19.5 4q-11 3 -19 7q0 4 12.5 35.5t32 78.5t45 104t51.5 112.5t50.5 104.5t42.5 79q27 46 54.5 101.5t50.5 105.5 q26 57 50 116q9 -1 38 1.5t59 2.5z" />
<glyph unicode="\" horiz-adv-x="418" d="M-75 681q108 -168 192 -315q36 -63 70.5 -127t61.5 -122.5t43.5 -106.5t16.5 -78q0 -3 -0.5 -8.5t-3 -10.5t-7 -9t-13.5 -4t-12.5 8t-6 20.5t-5.5 28.5t-10 33q-5 11 -26 54.5t-52.5 105t-69.5 134.5t-76.5 141.5t-73.5 126t-60 89.5q-6 5 -4 11q1 5 8.5 12.5t27.5 16.5z " />
<glyph unicode="]" horiz-adv-x="604" d="M94 -61q-15 0 -28.5 2.5t-23 6.5t-14.5 9t-3 10t9 5.5t17 -1t21.5 -3.5t22.5 -2q10 -1 19 0.5t17 3.5q9 2 16 4q3 8 18 39t37 74.5t47.5 94.5t49.5 98q12 24 27.5 57.5t33.5 72.5t36.5 81t36.5 82q41 94 86 199q-9 -1 -31.5 0t-46.5 3q-28 2 -60 4q-5 -8 -12.5 -10.5 t-10.5 3.5q-2 3 -6.5 6.5t-9.5 7.5t-9 6.5t-4 4.5q0 3 2.5 7.5t7.5 2.5q25 -4 51.5 -7t50.5 -4.5t44 -2t32 -0.5q13 0 24 -2.5t20 -4.5q10 -3 19 -6q0 -4 -12.5 -35.5t-32 -78.5t-45 -104t-51.5 -112.5t-50.5 -104.5t-42.5 -79q-28 -46 -55 -102t-50 -105q-26 -58 -50 -116 q-9 1 -38 -1.5t-59 -2.5z" />
<glyph unicode="^" horiz-adv-x="229" d="M184 702q0 -34 3.5 -56.5t7.5 -36.5t7.5 -20l3.5 -6q2 -1 -3 -7t-26 -2q-11 2 -15.5 18t-6.5 34t-3 33t-3 15t-14 -15t-26.5 -33.5t-27 -35t-15.5 -20.5t-9.5 -7.5t-13 -4t-12 1.5t-5.5 8q0 7 17.5 29.5t39.5 48t42 47.5t26 28q4 5 10 3t11 -7q6 -6 12 -15z" />
<glyph unicode="_" horiz-adv-x="318" d="M277 56q4 -5 8 -9q3 -4 5.5 -9.5t2.5 -10.5q0 -11 -10 -9t-17 3q-3 0 -27.5 1t-57.5 1.5t-68.5 -0.5t-62.5 -5q-2 1 -5 3q-2 2 -5 4t-6 7q-13 20 -8 20q31 4 71 6q34 2 80 2t100 -4z" />
<glyph unicode="`" horiz-adv-x="179" d="M168 556q6 -4 3.5 -10.5t-6.5 -12.5q-5 -6 -10 -6q-3 0 -6 1q-14 7 -35.5 17t-42 18.5t-36.5 15t-19 7.5q-7 2 -5 9t7 17q3 7 11 7q4 0 7 -2q30 -14 56 -25q23 -10 44 -20t32 -16z" />
<glyph unicode="a" horiz-adv-x="499" d="M-35 0q-28 0 -48 21.5t-20 46.5q0 16 10.5 44t29.5 60.5t45 66.5t57 61.5t66.5 45t72.5 17.5q22 0 40.5 -10.5t27.5 -20.5q16 21 29 36.5t19 22.5q9 11 16 14.5t12 3.5t10 -3l29 -25q-3 -5 -16.5 -21t-31 -38.5t-37.5 -50.5t-36.5 -57t-27.5 -58t-11 -53q0 -8 4 -21 t17 -13q29 0 65.5 21.5t78.5 55.5t88.5 75.5t95.5 80.5q2 1 5 2q4 1 9 -3q3 -5 -1 -10.5t-6 -7.5q-44 -51 -92 -98t-92 -82.5t-80 -56.5t-54 -21q-10 0 -26 4t-31 14t-26 28t-11 45q0 14 5 36q-27 -31 -55.5 -58.5t-54 -48.5t-45.5 -33t-30 -12zM-39 45q10 0 27 10.5t37 28 t42 40t44 45.5q50 55 108 125q3 3 5 7q-4 9 -13 17.5t-26 8.5q-29 0 -58.5 -18t-56.5 -45t-50 -60t-40 -62t-26.5 -51t-9.5 -28q0 -18 17 -18z" />
<glyph unicode="b" horiz-adv-x="515" d="M-45 -9q-2 -6 -8.5 -5t-14 7t-12.5 15t-3 20q13 67 40.5 139t62.5 144t75 140t80 126t76 103t63 71q4 0 12.5 -4t16.5 -9.5t12 -11.5t-1 -9q-16 -14 -48.5 -52t-73.5 -94.5t-85.5 -129t-84.5 -154.5q23 21 49.5 41t54.5 35t55.5 24t51.5 9q19 0 36.5 -8t31 -22.5 t21.5 -34t8 -42.5q0 -14 -3.5 -28t-8.5 -30q29 5 57.5 8.5t57.5 5.5q6 0 10 -2q2 -1 2 -3t-1.5 -3.5t-11.5 -3.5q-50 -9 -126 -28q-17 -33 -43.5 -65.5t-58 -58t-65 -41.5t-64.5 -16q-42 0 -69 18.5t-27 44.5q0 17 22 35.5t59.5 35.5t87.5 33t106 28q12 20 19 42t7 44 q0 6 -0.5 11.5t-1.5 10.5q-2 11 -8.5 21t-21.5 10q-48 0 -94.5 -27t-85.5 -62t-66.5 -68t-36.5 -45q-15 -41 -28 -82t-22 -83zM82 70q20 0 44.5 8.5t50 24t49.5 36.5t44 45q-38 -11 -73 -24t-62 -26.5t-43 -27.5t-16 -29q0 -7 6 -7z" />
<glyph unicode="c" horiz-adv-x="450" d="M67 -22q-18 0 -37.5 6.5t-36 20.5t-27 36t-10.5 54q0 48 13.5 93t36 83.5t51 70.5t58 54.5t57.5 35t50 12.5q18 0 35 -6t29.5 -15t20.5 -20t8 -21q0 -17 -10 -40t-22 -44q-14 -25 -31 -51q-13 3 -22 7q-8 3 -13 7.5t-2 9.5q15 27 24.5 45.5t14.5 31t7 20t2 13.5 q0 5 -2 12.5t-13 7.5q-23 0 -50 -14t-54 -37t-52 -54t-44 -65t-30.5 -69.5t-11.5 -67.5q0 -31 12.5 -54.5t40.5 -23.5q25 0 56.5 12t66 31.5t70.5 44t70 50.5q78 61 162 139l7 7t8.5 7t8.5 4.5t7 -0.5q5 -4 -2 -13.5t-18 -21.5q-69 -74 -133 -129.5t-118.5 -93t-98.5 -56.5 t-73 -19h-5v0z" />
<glyph unicode="d" horiz-adv-x="436" d="M242 -46q-13 0 -24 5.5t-19.5 14.5t-13 19.5t-4.5 20.5q0 51 22.5 125.5t57.5 156.5q-48 -59 -94.5 -112.5t-87 -94t-72 -65t-47.5 -24.5q-28 0 -46.5 21t-18.5 46q0 16 10.5 45.5t29.5 65.5t45 73t57 67t66.5 49.5t72.5 19.5q13 0 25 -4.5t22 -10.5t17 -12.5t10 -10.5 q24 29 47.5 58.5t46.5 58.5q28 53 56.5 99t53 80.5t44.5 54.5t32 20q11 0 17 -3t11 -7q4 -4 8 -10q-3 -6 -17.5 -28t-38 -55t-55 -75t-67.5 -88q-31 -60 -59.5 -123.5t-50.5 -123t-35.5 -110.5t-13.5 -84q0 -14 3 -21t7 -10t8 -2.5t6 1.5q4 2 11.5 3t9.5 -4t-2.5 -15.5 t-29.5 -10.5zM-41 45q12 0 38.5 22.5t62.5 60t78.5 87t86.5 103.5q-2 9 -11.5 20.5t-30.5 11.5q-29 0 -58.5 -19.5t-56 -49.5t-49.5 -65.5t-40.5 -67.5t-27 -55.5t-9.5 -29.5q0 -18 17 -18z" />
<glyph unicode="e" horiz-adv-x="442" d="M70 -23q-9 0 -27 3.5t-37 17.5t-33 41.5t-14 76.5q0 50 22.5 107t59.5 105.5t84.5 80.5t97.5 32q10 0 21 -6t20.5 -16t15.5 -21.5t6 -21.5q0 -26 -23.5 -64.5t-56 -75.5t-67.5 -63t-59 -26q-23 0 -36.5 13.5t-21.5 29.5q-6 -15 -9 -25.5t-4.5 -19.5t-2.5 -18.5t-1 -21.5 q0 -37 13 -59.5t39 -22.5q29 0 62.5 11.5t68.5 30.5t70 43t67 50q75 59 152 135q3 4 7 3.5t6.5 -3t2 -7.5t-4.5 -10q-63 -75 -126.5 -131t-120 -93.5t-101.5 -56t-70 -18.5zM75 200q19 0 47.5 23.5t55.5 54.5t46 59.5t19 39.5q0 8 -6.5 15.5t-15.5 7.5q-20 0 -44 -14 t-49 -38t-48 -55t-40 -64q4 -11 12.5 -20t22.5 -9z" />
<glyph unicode="f" horiz-adv-x="386" d="M-128 -373q-26 0 -44 15.5t-18 56.5q0 34 8 78.5t22.5 95.5t34.5 107.5t45 115.5q-8 24 -18.5 39.5t-27.5 20.5q-5 2 -4 5.5t4 8.5q4 5 10 12q34 0 56 -38q32 73 68.5 145.5t74.5 138.5t76 123t74 98.5t68 65.5t57 24q32 0 51.5 -15.5t19.5 -38.5q0 -17 -11 -50.5 t-28.5 -73t-38 -81t-39.5 -76t-34 -56t-21 -21.5q-15 0 -24 3t-14 7q-6 4 -8 11q4 0 18.5 20t33.5 51.5t40.5 71t39.5 78t29.5 72.5t11.5 55q0 1 -2 3q-4 4 -10 4q-17 0 -43 -23t-57.5 -63t-67.5 -94.5t-73 -118t-73 -133.5t-68 -141q22 0 57.5 3.5t86.5 18.5t119 45.5 t155 84.5q3 2 7 4q7 2 10 -1q5 -5 3.5 -9t-5.5 -6q-1 -1 -19 -14.5t-48 -33.5t-69 -43.5t-82.5 -43t-89 -32.5t-87.5 -13q-16 0 -29 2t-24 4q-3 -5 -5.5 -11t-4.5 -11q9 -40 11 -89t-1.5 -99t-12 -96.5t-22 -82.5t-31 -58t-37.5 -22zM-141 -336q13 0 27 31.5t25 80.5 t17 107.5t5 112.5q-35 -89 -55.5 -166t-20.5 -132q0 -11 0.5 -19t1.5 -15z" />
<glyph unicode="g" horiz-adv-x="502" d="M-163 -580q-4 0 -10 2.5t-12 7t-10.5 10t-4.5 11.5q0 61 18 117.5t47.5 107.5t68 95.5t80 81.5t82 67t75.5 52q38 75 72.5 148t62.5 139q-42 -42 -87.5 -82t-88 -70.5t-77.5 -49.5t-56 -19q-12 0 -25 5t-24.5 15t-19 23t-7.5 30q0 25 15.5 57t41 65t58.5 65.5t67.5 57.5 t68.5 40.5t62 15.5q9 0 19.5 -4t19.5 -10.5t15.5 -14.5t6.5 -15q0 -8 -11 -4t-37 4q-21 0 -51 -14t-62.5 -37t-64 -52.5t-56.5 -60t-40.5 -60.5t-15.5 -53q0 -19 25 -19q16 0 42 13.5t58 36t68 52t71.5 62.5t68.5 66.5t60 64.5q23 60 35.5 104t12.5 64q0 9 10.5 11t23 -5 t23 -23t10.5 -43q0 -19 -19 -50.5t-51 -69.5q-22 -72 -60 -158.5t-86 -178.5q8 4 11 5q10 5 17 4t9.5 -4.5t0 -8.5t-10.5 -8q-11 -5 -22.5 -11t-23.5 -14q-37 -70 -77 -139t-79.5 -131.5t-76.5 -115.5t-68 -92t-55 -61t-37 -22zM-151 -504q36 33 73 79t74.5 101t74 116 t71.5 125q-52 -42 -104 -96t-94 -111t-68.5 -112.5t-26.5 -101.5z" />
<glyph unicode="h" horiz-adv-x="593" d="M-46 9q-2 -6 -9 -5t-14.5 7t-12.5 15t-2 20q14 52 40.5 115t60 130t72 133.5t75.5 124.5t70.5 104.5t58.5 72.5q4 0 14 -4.5t19 -10.5t14.5 -12t0.5 -9q-13 -11 -34.5 -37.5t-49 -64.5t-59 -86.5t-63.5 -103.5t-63.5 -114.5t-58.5 -120.5q32 34 65.5 65t66.5 55 t63.5 38.5t57.5 14.5q8 0 20 -5t23 -14t19 -22t8 -29q0 -7 -2.5 -24t-5 -39t-5 -45.5t-2.5 -43.5t3.5 -32.5t11.5 -12.5q26 0 54.5 15.5t62 43.5t72.5 66.5t86 83.5q15 14 22.5 5t-2.5 -22q-55 -66 -106 -117q-22 -22 -45 -42.5t-45 -37t-42 -26.5t-35 -10q-20 0 -37 7.5 t-30 18.5t-20.5 23.5t-7.5 23.5q0 10 3 36t6.5 55t6.5 53.5t3 31.5q0 14 -2.5 19t-7.5 5q-30 0 -68.5 -26t-80.5 -68t-85.5 -94t-83.5 -104z" />
<glyph unicode="i" horiz-adv-x="277" d="M128 414q-12 8 -12.5 25.5t10.5 34.5q12 17 28.5 22.5t28.5 -2.5t12.5 -25.5t-10.5 -34.5q-12 -17 -28.5 -22.5t-28.5 2.5zM52 24q-13 0 -28.5 3t-29.5 12t-25 24.5t-14 40.5q-5 37 10 80.5t36 83.5t42 70.5t29 41.5t15 14t12 3t10 -3l23 -18q-3 -5 -13.5 -21t-25 -39.5 t-30 -52.5t-28 -59t-19.5 -59t-4 -53q1 -9 6 -19t10 -10q29 0 60 23.5t65.5 59.5t73.5 79.5t84 82.5q1 2 4 3q4 2 9 -3q4 -5 1 -10.5t-5 -8.5q-38 -51 -76.5 -99t-74 -85t-66 -59t-51.5 -22z" />
<glyph unicode="j" horiz-adv-x="259" d="M112 416q-12 8 -12.5 25.5t10.5 34.5t27.5 22.5t29.5 -2.5q12 -8 12 -25.5t-11 -34.5t-27.5 -22.5t-28.5 2.5zM-309 -558q-14 -3 -25 1q-10 3 -17.5 11.5t-7.5 27.5q0 3 1 5q5 44 22.5 96t45 107.5t64.5 113t80 113.5q57 112 113 233.5t100 239.5q3 9 7.5 14.5t14.5 -2.5 q5 -4 9.5 -8t8.5 -9t9 -11q-4 -12 -16 -41t-30 -70.5t-41 -93t-48 -108.5q66 68 135.5 120.5t138.5 83.5q3 2 9.5 3.5t9.5 -3.5q2 -3 0 -8q-1 -2 -3 -3q-105 -69 -190.5 -149t-154.5 -162q-37 -81 -74.5 -162t-69.5 -149t-56.5 -118.5t-34.5 -71.5z" />
<glyph unicode="k" horiz-adv-x="490" d="M-47 5q-10 -1 -22.5 11t-9.5 29v2q14 52 40 115.5t59 131t70.5 135t74 126.5t69.5 106t58 73q4 0 14 -4.5t19 -10.5t14.5 -12t0.5 -9q-19 -17 -57 -68t-84 -124.5t-94 -162.5t-88 -181q39 43 82 85t82.5 77t71 59.5t48.5 31.5q17 -14 22 -23t5 -15q0 -7 -6 -11 q-76 -48 -131 -96t-94 -93q5 -9 13 -18.5t19 -17.5t25.5 -13.5t32.5 -5.5q16 0 41.5 6t63.5 22t89.5 44.5t118.5 73.5q3 2 7 4q8 2 11 -1q5 -5 3 -9t-6 -6q-1 -1 -17.5 -14.5t-43 -32.5t-60.5 -41.5t-70 -41.5t-71 -31.5t-64 -12.5q-24 0 -44 6t-35 15t-26 19.5t-18 19.5 q-24 -30 -42 -55t-31.5 -43.5t-23 -28.5t-16.5 -10z" />
<glyph unicode="l" horiz-adv-x="419" d="M448 286q10 8 15 0t-3 -15q-46 -42 -100 -89.5t-107 -87t-102 -66t-85 -26.5t-58 8.5t-34 20t-16 22t-4 13.5q0 47 23 116t59.5 145.5t83.5 152t94.5 136t91.5 98.5t76 38q28 0 45.5 -6.5t17.5 -16.5q0 -16 -13 -45.5t-35 -67.5t-50 -80.5t-58 -85t-60 -81t-55.5 -68.5 t-44 -47.5t-25.5 -17.5h-25.5t-21.5 1q-19 -45 -29.5 -86.5t-10.5 -76.5q0 -6 1.5 -12.5t7 -12.5t15 -10t25.5 -4q23 0 59.5 18t78 45t83.5 58.5t76.5 59.5t57.5 47.5t27 22.5zM381 706q-6 0 -24 -17t-43.5 -46.5t-56 -69.5t-61.5 -86.5t-61.5 -97.5t-54.5 -101q31 32 65 72 t67.5 83t64 85t53.5 78t37 62.5t14 37.5z" />
<glyph unicode="m" horiz-adv-x="647" d="M-71 -21q-20 0 -33.5 8.5t-13.5 15.5q0 6 10 29.5t26 58.5t36.5 77.5t42.5 86.5q50 102 115 229q6 0 11 -1t10.5 -2.5t12.5 -4.5q13 -5 12.5 -13.5t-5.5 -16.5q-34 -59 -64 -117.5t-56 -112.5q35 42 70 77.5t66.5 61.5t58 40.5t45.5 14.5q22 0 31.5 -13t9.5 -27 q0 -9 -5 -26t-12.5 -39t-16.5 -46.5t-18 -48.5q17 16 35.5 29t37 22.5t36.5 14t34 2.5q17 -2 24 -18.5t8 -40.5t-1.5 -50.5t-4.5 -49.5t-0.5 -38t11.5 -15q12 0 39 18.5t59.5 47.5t64.5 63.5t54 67.5q4 6 9.5 7.5t9.5 -1t5 -7t-3 -10.5q-79 -110 -138 -161t-97 -51 q-12 0 -23.5 6t-20 16t-13.5 22t-5 23t1 34.5t3 46.5q2 27 4 58q-17 0 -41 -17.5t-48 -41t-44.5 -48.5t-30.5 -40q-25 0 -34.5 11t-9.5 25q0 6 6 24t15 41.5t20 50t20 50.5t15 42.5t6 26.5q-18 0 -46.5 -23t-61.5 -59t-68.5 -81t-66.5 -88t-56 -80.5t-37 -59.5z" />
<glyph unicode="n" horiz-adv-x="513" d="M-66 6q-20 0 -33 8.5t-13 15.5q0 6 9.5 27.5t24.5 53t34.5 69.5t39.5 77q48 92 108 204q5 0 10 -1t10.5 -2.5t12.5 -4.5q13 -5 13 -13.5t-5 -16.5q-30 -51 -56 -99.5t-49 -92.5q22 26 46 50.5t49.5 45t51 35t51.5 20.5q3 1 10.5 -1.5t15.5 -5.5t15 -6.5t10 -5.5 q12 -7 14 -30.5t-1.5 -54t-9.5 -64.5t-10 -62t-4.5 -46.5t8.5 -18.5q12 0 39.5 18t62 46t71 62t67.5 66q5 6 10.5 7t9 -1t3.5 -6t-4 -10q-38 -41 -76 -80t-71.5 -69t-61.5 -48t-47 -18q-25 0 -43.5 20t-18.5 43q0 6 1 18.5t3.5 30t5 37.5t5.5 40q7 47 16 103 q-18 0 -45.5 -17t-59 -45t-64.5 -64t-63 -73.5t-54.5 -74.5t-37.5 -66z" />
<glyph unicode="o" horiz-adv-x="409" d="M21 14q-13 0 -25 7.5t-21 18.5t-14.5 23.5t-5.5 22.5q0 18 4 41t11.5 49t18 53.5t22.5 53.5q-27 44 -27 71q0 7 5 16.5t16.5 18.5t31.5 15t50 6h7q15 10 24 10l21 -18q29 -10 49.5 -28.5t34 -38.5t20 -38.5t6.5 -28.5q0 -12 -10.5 -34.5t-27.5 -48.5q29 5 69.5 19 t77.5 30q43 18 89 40q13 7 22 8t12 -2t-0.5 -8t-13.5 -10q-54 -30 -105 -55q-44 -21 -92.5 -38.5t-84.5 -19.5q-19 -25 -40.5 -49.5t-43.5 -43.5t-43 -30.5t-37 -11.5zM159 188q22 27 36 51.5t14 40.5q0 43 -23.5 62t-54.5 24q-15 -17 -33.5 -42.5t-35.5 -57.5 q18 -24 43 -46t54 -32zM31 323q5 11 11 20.5t12 18.5q-14 -5 -19.5 -13.5t-5.5 -15.5q0 -2 2 -10zM8 55q7 0 21.5 8.5t31.5 23t36.5 33.5t37.5 39q-25 11 -48 31.5t-43 43.5q-20 -39 -33 -80.5t-13 -79.5v-5q1 -5 3 -9.5t7 -4.5z" />
<glyph unicode="p" horiz-adv-x="469" d="M-192 -315q-8 4 -13 8.5t-9 9.5t-7 10q35 95 71.5 186t71 172.5t65.5 151t55.5 121.5t41.5 83.5t24 36.5l32 -18q4 -2 5 -6t-0.5 -11t-7.5 -18q-17 -30 -48 -97t-68 -151q30 31 65 61.5t71.5 55.5t73 40.5t68.5 15.5q9 0 17 -4t15 -10.5t11 -13.5t4 -13q0 -10 -5.5 -24.5 t-15.5 -31.5t-24 -35.5t-31 -36.5q32 11 69.5 27t79.5 40q25 16 32 9.5t-15 -20.5q-71 -49 -131.5 -75.5t-103.5 -37.5q-41 -27 -81 -27q-9 0 -19.5 4t-20 10t-16 12.5t-6.5 11.5q0 10 17 14t29 4h19.5t37.5 3q26 13 51.5 33t45.5 43.5t32.5 47t12.5 43.5q-20 0 -50 -14.5 t-64.5 -38.5t-70 -56t-68 -66.5t-58.5 -69.5t-41 -66l-9 -21q-37 -90 -66.5 -167.5t-42.5 -122.5q-1 -2 -5.5 -6t-19.5 4z" />
<glyph unicode="q" horiz-adv-x="382" d="M-27 -414q-18 0 -23.5 14.5t-4.5 25.5q4 42 20.5 101t41 125.5t54 137.5t59.5 137q-46 -46 -86 -76.5t-57 -30.5q-28 0 -48.5 21.5t-20.5 46.5q0 16 10 42t28 56.5t43 61.5t55 55.5t65 40.5t72 16q12 0 23 -6t19 -14q18 35 30 54.5t15 19.5q11 0 23.5 -7t23.5 -15 q13 -10 26 -21q-20 -13 -52.5 -62t-70 -118t-75.5 -150.5t-70 -160t-54 -146t-26 -108.5q-2 -11 3 -17t5 -9q1 -3 -4 -8.5t-24 -5.5zM-28 65q14 0 39 19t54.5 47t59.5 61t54 60q8 17 15.5 32l14.5 29q-7 11 -19 11q-29 2 -58 -13.5t-55 -40t-48.5 -55t-38.5 -58t-25.5 -48 t-9.5 -26.5q0 -18 17 -18z" />
<glyph unicode="r" horiz-adv-x="462" d="M-62 -29h-6.5t-6.5 1q-13 2 -20.5 7.5t-12.5 10.5q-5 6 -8 14q0 26 22 74t61 103q19 44 39 86.5t36 77.5q18 40 36 78q5 0 10 -1t10.5 -3t12.5 -4q13 -5 12.5 -13.5t-4.5 -16.5q-24 -40 -44 -79q57 54 124.5 89.5t138.5 35.5q28 0 46 -9.5t27.5 -22.5t13 -26t3.5 -19 q0 -7 -3 -9t-6.5 -1.5t-7.5 3.5t-5 6t-3 10t-7.5 14.5t-14.5 13.5t-25 6q-59 0 -120 -29t-116.5 -82.5t-102 -129t-74.5 -168.5l-5 -17v0z" />
<glyph unicode="s" horiz-adv-x="439" d="M-37 -149q-22 0 -33.5 7t-17.5 16q-7 10 -8 23q0 11 17 29t46 40t68 45t84 45q-11 16 -29 34t-36 40t-31 48.5t-13 59.5q0 24 17.5 53.5t46 60t66 59.5t76.5 51.5t77 36t69 13.5q12 0 24 -5.5t21 -15t15 -22t6 -25.5q0 -15 -21 -37.5t-48.5 -43.5t-53.5 -36t-36 -15 l-31 27q-3 4 -2 8t5 9t17 11q12 6 33 18.5t41.5 26.5t35.5 27t15 20h-5q-22 0 -55 -10t-69 -28t-71.5 -42t-64 -52t-46.5 -58t-18 -60q0 -19 9.5 -37t24 -35t30.5 -34t30 -34q59 27 120 46t116 24q19 2 18 -5.5t-16 -10.5q-53 -11 -109 -33t-110 -51q3 -7 5 -13.5t2 -14.5 q0 -24 -25 -52t-59.5 -52t-70 -40t-56.5 -16zM-13 -85q23 9 45 21.5t40.5 26t32 27t19.5 25.5q-42 -24 -76.5 -50t-60.5 -50z" />
<glyph unicode="t" horiz-adv-x="318" d="M37 -59q-37 0 -64.5 15.5t-27.5 43.5q0 59 18.5 129.5t49 144t70.5 146.5t82 137q-33 2 -58 2.5t-36 2.5q-19 2 -28.5 9t-13.5 15q-5 9 -5 20l173 -2q39 54 76 95t68 63q8 2 15 -2t12 -10q6 -7 11 -16q-32 -29 -62 -62t-58 -69l165 -2q17 -1 24.5 -8.5t10.5 -16.5 q4 -11 2 -25q-37 0 -77 1q-34 1 -75.5 1.5t-83.5 2.5q-52 -77 -93.5 -158.5t-71 -156.5t-46 -136.5t-18.5 -96.5q-1 -22 7 -37q2 -1 4 -1h9q28 0 62.5 26.5t75 72t86.5 106t96 129.5q11 17 20 23.5t14 5.5t5.5 -7.5t-5.5 -13.5q-21 -29 -47 -68t-54 -80.5t-58 -81.5t-60 -71 t-59 -50.5t-55 -19.5z" />
<glyph unicode="u" horiz-adv-x="455" d="M296 11q-10 0 -20.5 4.5t-19.5 16t-14.5 31t-5.5 49.5q0 33 6 64.5t15 58.5q-27 -34 -56 -67.5t-58 -60.5t-57 -43.5t-52 -16.5q-16 0 -29.5 6.5t-23 17t-14.5 23t-5 24.5q0 52 20 99.5t44 84.5q28 43 65 80q4 -3 9 -6q4 -2 9.5 -5t11.5 -6q12 -5 14.5 -11t-0.5 -9 q-29 -28 -52 -60.5t-38.5 -65t-24 -62.5t-8.5 -53q0 -12 5 -24q24 0 51 20t61.5 56t78 86t100.5 110l33 -12q5 -2 8 -5q6 -6 1 -13q-3 -5 -13 -28.5t-21 -57t-19.5 -73.5t-8.5 -78q0 -20 3 -34t6 -23t3.5 -13t-4.5 -4z" />
<glyph unicode="v" horiz-adv-x="370" d="M27 31q-16 0 -29.5 6.5t-23 17t-14.5 23t-5 24.5q0 21 4.5 45t12 49t17 49.5t19.5 47.5q23 53 53 106q4 -3 9 -6q4 -2 9.5 -5t11.5 -6q12 -6 14 -11t0 -9q-21 -32 -39.5 -70t-32 -76t-21 -72t-7.5 -57q0 -5 2 -15q24 6 55 35.5t67.5 74t78 100t86.5 114.5l30 -18 q-14 -23 -36.5 -58t-50 -73.5t-58 -77t-59 -69.5t-53 -50t-40.5 -19z" />
<glyph unicode="w" horiz-adv-x="571" d="M237 -14q-15 0 -29.5 4t-26 13.5t-18.5 24.5t-7 38q0 15 2.5 35t7 42.5t11.5 46t16 45.5q-27 -33 -56 -70.5t-55 -69.5t-47.5 -53t-34.5 -21q-8 0 -17.5 2.5t-18 7t-14.5 12t-6 16.5q0 17 5.5 41t14 52t20 57.5t23.5 57.5q28 66 64 139q20 -8 29.5 -15t12.5 -13 q4 -7 0 -13q-31 -68 -57 -126l-22 -50t-20 -47.5t-15.5 -40.5t-8.5 -27q13 9 33 29.5t44 47t50 55.5t51.5 55.5t48 47t39.5 29.5l33 -22v-17q-26 -38 -45 -80q-17 -36 -30.5 -81.5t-13.5 -93.5q0 -11 3.5 -14.5t7.5 -3.5q8 0 30 19t51.5 50.5t63 71.5t64.5 82.5t56.5 83 t38.5 73.5q7 -2 11 -8q4 -5 6.5 -14.5t0.5 -26.5q-1 -10 -20.5 -41.5t-48.5 -73t-63.5 -86.5t-67 -83t-58.5 -62.5t-38 -24.5z" />
<glyph unicode="x" horiz-adv-x="351" d="M-64 -76q-2 -5 -14 -1.5t-17 20.5q0 18 14 48.5t38 67.5t55.5 78.5t65.5 80.5q0 43 2.5 90.5t6.5 98.5q13 -2 24 -6q9 -4 16.5 -12t6.5 -21q-2 -13 -5 -38.5t-5 -60.5q49 52 92.5 86.5t68.5 34.5q10 0 18 -7t11.5 -16t2.5 -16t-10 -7q-11 0 -31 -11.5t-44.5 -32 t-53.5 -48t-58 -58.5q-2 -59 6.5 -119t34.5 -105q5 -9 1 -11.5t-8 -0.5q-38 24 -54.5 72.5t-20.5 117.5q-25 -29 -48.5 -59.5t-42.5 -59.5t-32.5 -56t-19.5 -49z" />
<glyph unicode="y" horiz-adv-x="498" d="M-120 -499q-4 0 -10 2.5t-12 7t-10.5 10t-4.5 11.5q0 54 28.5 105t72 96.5t95.5 83.5t100 67q50 87 90.5 172.5t71.5 158.5q-32 -37 -67.5 -74t-68.5 -66.5t-60 -48t-42 -18.5q-33 0 -52 14t-28 31t-11.5 32.5t-2.5 18.5t4 33.5t19.5 77.5t46.5 105.5t86 117.5 q10 -5 18 -10q7 -5 12.5 -10.5t3.5 -12.5q-3 -6 -14.5 -22t-27 -39.5t-33.5 -52.5t-32.5 -61t-24.5 -65t-10 -64v-14t1.5 -17t4.5 -14t10 -6q15 0 47 19.5t76.5 61.5t99.5 108.5t116 159.5q2 4 5 6q2 2 5.5 2t8.5 -5q9 -8 16.5 -16.5t2.5 -27.5q-2 -5 -6.5 -13t-12.5 -19 q-12 -41 -31 -88.5t-43 -100t-52.5 -107t-58.5 -108.5q39 21 59 31q10 5 17.5 4t10 -4.5t0 -8.5t-11.5 -9q-22 -10 -47.5 -24t-51.5 -31q-44 -76 -89.5 -144.5t-86 -120.5t-73.5 -83t-53 -31zM-97 -431q55 51 105 116.5t95 138.5q-39 -31 -75.5 -65t-64 -67.5t-44 -65 t-16.5 -57.5z" />
<glyph unicode="z" horiz-adv-x="412" d="M-209 -398q-8 0 -17 3t-17 8.5t-13.5 13t-5.5 15.5q0 27 24.5 68.5t80 91t145.5 104.5t222 110q10 28 10 51q0 6 -2.5 15.5t-10 18.5t-20 16t-33.5 7q-41 0 -74.5 -13.5t-57.5 -27.5q-8 -3 -9.5 0t-3.5 5l-28 34q9 6 36 29.5t62.5 56.5t73.5 71t70 73t52 63.5t19 42.5 q-31 -5 -71 -30q-34 -22 -80.5 -66t-101.5 -125q-5 -5 -12 -6q-6 -1 -15 3.5t-20 19.5q43 66 89.5 113.5t89.5 78t78.5 44.5t55.5 14q25 1 32 -12.5t7 -26.5q0 -17 -12 -43.5t-41.5 -64.5t-78.5 -88t-124 -114q24 6 55 6q20 0 41.5 -8t39 -21t28.5 -30.5t11 -35.5 q0 -14 -3 -29q6 2 11.5 4t11.5 4q8 3 13.5 1.5t6 -5.5t-4 -9t-15.5 -8l-29 -12q-14 -43 -47 -90.5t-75.5 -93t-91.5 -86.5t-96 -72t-87.5 -49.5t-67.5 -18.5zM-213 -358q16 0 47 14.5t70 39.5t82.5 59t83.5 72t73.5 79t53.5 80q-74 -34 -130.5 -66.5t-99 -63.5t-72.5 -58.5 t-50 -51.5q-48 -56 -58 -104z" />
<glyph unicode="{" horiz-adv-x="557" d="M530 741q0 -5 -8.5 -4t-12.5 4q-4 2 -10 8t-20 6q-20 0 -42 -26t-46 -65.5t-48.5 -85.5t-48.5 -85.5t-46.5 -65.5t-41.5 -26q16 -5 22 -19.5t6 -28.5q0 -13 -11.5 -33.5t-29.5 -46.5t-38 -56t-38 -60.5t-29.5 -60t-11.5 -55.5q0 -18 6 -30t14 -18.5t16 -8.5t12 1 q8 5 16 2.5t8 -10.5q0 -7 -12 -13t-27 -6q-20 0 -35.5 10t-26 24.5t-16.5 32t-6 32.5q0 28 12 60t29.5 63.5t38 61.5t38 55.5t29.5 45t12 29.5q0 11 -18 22q-9 5 -16.5 11t-7.5 9t1.5 7t6.5 4q30 0 56.5 27t51 67t48.5 87t48.5 87t50.5 67t56 27q12 0 24 -3.5t22 -9.5 t16.5 -14.5t6.5 -18.5z" />
<glyph unicode="|" horiz-adv-x="335" d="M133 640q-1 9 6.5 13t17.5 6q11 2 25 0q3 -45 5 -103.5t2.5 -128.5t-0.5 -148t-4 -162q-3 -83 -12 -143t-19.5 -98.5t-21 -57t-18.5 -18.5t-11 2.5t-4 5.5q-1 4 1 9q4 9 6 17.5t5 29t7 58.5t12 106q5 46 7.5 105t3 123t-0.5 127t-2 116t-2.5 90.5t-2.5 50.5z" />
<glyph unicode="}" horiz-adv-x="557" d="M26 6q0 5 8.5 4t12.5 -4q4 -2 10 -8t20 -6q19 0 41.5 26t46.5 65.5t48.5 85.5t48.5 85.5t46.5 65.5t41.5 26q-16 5 -22 19.5t-6 28.5q0 13 11.5 33.5t29.5 46.5t38 56t38 60.5t29.5 60t11.5 55.5q0 18 -6 29.5t-14 18.5t-16 9t-12 -1q-8 -5 -16 -2.5t-8 10.5q0 7 12 13 t27 6q19 0 35 -10t26.5 -24.5t16.5 -32t6 -32.5q0 -28 -12 -60t-29.5 -63.5t-38 -61.5t-38 -55.5t-29.5 -45t-12 -29.5q0 -12 18 -22q9 -5 16.5 -11t7.5 -9t-1.5 -7t-6.5 -4q-30 0 -56.5 -27t-51 -67t-48.5 -87t-48.5 -87t-51 -67t-55.5 -27q-12 0 -24 3.5t-22 9.5 t-16.5 14.5t-6.5 18.5z" />
<glyph unicode="~" horiz-adv-x="294" d="M273 288q12 -10 13 -14q1 -3 0 -4q-28 -32 -54 -57q-23 -21 -47.5 -38.5t-43.5 -17.5q-38 0 -40.5 30t25.5 75q-15 -6 -29 -15q-12 -8 -26.5 -19.5t-25.5 -25.5q-7 -3 -14 -3q-6 0 -12 2t-11 9q0 6 16 21t38 30.5t46 27.5t39 12q14 0 20.5 -8t6.5 -13q0 -2 -5 -14.5 t-11 -27t-11.5 -28t-6.5 -18.5q13 7 30 18q14 10 32.5 27t40.5 44q5 5 9 8q4 2 9 3t12 -4z" />
<glyph unicode="&#xa1;" horiz-adv-x="504" d="M441 707q-15 0 -26 17.5t-11 42.5t11 42t26 17t26 -17t11 -42t-11 -42.5t-26 -17.5zM61 -145q-17 8 -25 15t-10 12q-3 6 -1 11q39 49 81 118.5t83.5 145t78.5 150t65.5 134.5t46 99t19.5 43q2 6 3 15t3.5 16.5t6 13t11.5 5.5q7 0 11.5 -4.5t6 -11t2 -13t0.5 -9.5 q0 -23 -20 -74.5t-52.5 -119.5t-73.5 -145.5t-83.5 -152t-82.5 -140t-70 -108.5z" />
<glyph unicode="&#xa2;" horiz-adv-x="617" d="M554 847q21 -11 28.5 -19.5t9.5 -15.5q1 -8 -4 -14q-25 -32 -51 -70t-53 -83q17 -17 27 -43.5t10 -57.5q0 -27 -3.5 -45.5t-8.5 -29.5q-5 -13 -12 -21q-10 4 -18 8q-7 3 -12 7t-5 8t3 11.5l7 17.5t7 21.5t3 24.5q0 16 -3 36t-12 35q-35 -59 -70.5 -125t-68.5 -134.5 t-62 -138.5t-53 -136q24 12 46.5 29t41 33t31 28t15.5 15q8 6 13 1q3 -3 4 -8q-36 -45 -77 -79.5t-86 -51.5l-12 -35q-6 -21 -10 -42t-7.5 -38t-7 -28t-9.5 -11q-9 0 -14 5t-6.5 11.5t-1.5 13.5v10q0 20 5.5 46t15.5 58q-5 -1 -15 -1q-31 0 -52.5 13t-35 34t-19.5 46.5 t-6 49.5q0 52 20 109t52.5 111.5t74.5 104t85.5 86.5t85 59t74.5 22q18 0 33 -6q22 40 41 72.5t33 56.5q16 27 29 50zM148 64q3 0 6.5 0.5t7.5 0.5q21 61 53 134.5t69.5 149.5t77 151t74.5 139h-6q-23 0 -59 -20.5t-76.5 -55.5t-81.5 -81.5t-74 -99t-53.5 -107.5t-20.5 -106 q0 -8 2 -25.5t10 -35t25 -31t46 -13.5z" />
<glyph unicode="&#xa3;" horiz-adv-x="636" d="M572 815q4 0 13.5 -3.5t18.5 -9t16 -13t7 -15.5q0 -24 -17 -61t-41.5 -78.5t-53 -82t-51.5 -72.5q-10 0 -18 2q-7 2 -12.5 4.5t-5.5 8.5q0 4 12 21.5t30 43t39.5 56t39.5 59t30 53t12 38.5v8q-2 8 -5 8q-10 0 -33 -20t-54.5 -55t-68.5 -82t-74.5 -100t-73 -109.5 t-63.5 -111.5q23 5 59 9.5t81 2.5q2 0 5 -1q5 -3 5 -4q0 -3 -12 -9t-34 -10q-9 -2 -23.5 -4.5t-31.5 -6t-35.5 -9t-34.5 -11.5q-23 -49 -36 -92t-13 -77q-1 -8 -1 -14q0 -5 0.5 -11t2.5 -9q2 -5 0 -9q51 2 119 -7.5t156 -40.5l8 -4q8 -4 7 -9q-2 -6 -11 -8t-20 0q-5 1 -30 7 t-59 13t-72 12.5t-69 5.5q-32 0 -58.5 -3.5t-46.5 -7.5q-23 -5 -42 -11q-4 -2 -8 0q-8 2 -14 16q-2 6 0.5 11t7.5 7q15 4 42.5 10t67.5 8q-13 4 -18.5 18.5t-5.5 25.5q0 28 15.5 74.5t42 102.5t61 118.5t73 123t78.5 115.5t77 97t68 67t52 25z" />
<glyph unicode="&#xa8;" horiz-adv-x="151" d="M69 576q0 -14 -9 -23t-22 -9q-12 0 -21 9t-9 23q0 13 9 22t21 9q13 0 22 -9t9 -22zM140 576q0 -14 -9 -23t-22 -9q-12 0 -21 9t-9 23q0 13 9 22t21 9q13 0 22 -9t9 -22z" />
<glyph unicode="&#xab;" horiz-adv-x="561" d="M378 534q28 -11 28.5 -26.5t-13.5 -25.5q-4 -3 -20 -17t-39.5 -35t-52.5 -46.5t-59 -52.5q-70 -62 -156 -141q62 -53 112 -97q21 -19 42.5 -37.5t39 -34t29.5 -26.5t16 -15q7 -8 6 -13t-5.5 -8t-10.5 -3t-8 3q-2 2 -15.5 14t-34 30t-45.5 40t-49.5 43t-45.5 38.5 t-34 28.5q-20 15 -31 26t-16 18q-6 8 -7 13q9 6 29 23t48 41t60 52.5t65 57.5q76 68 167 150zM521 534q28 -11 28.5 -26.5t-14.5 -25.5q-4 -3 -20 -17t-39.5 -35t-52.5 -46.5t-59 -52.5q-70 -62 -156 -141q62 -53 112 -97q21 -19 42.5 -37.5t39 -34t29.5 -26.5t16 -15 q7 -8 6.5 -13t-5 -8t-10.5 -3t-8 3q-2 2 -15.5 14t-34.5 30t-46 40t-49.5 43t-45.5 38.5t-34 28.5q-20 15 -30.5 26t-15.5 18q-6 8 -7 13q9 6 29 23t48 41t60 52.5t65 57.5q76 68 167 150z" />
<glyph unicode="&#xad;" horiz-adv-x="318" d="M280 385q4 -5 8 -9q3 -4 5.5 -9.5t2.5 -10.5q0 -11 -10 -9t-17 3q-3 0 -27.5 1t-57.5 1.5t-68.5 -0.5t-62.5 -5q-2 1 -5 3q-7 4 -11 11q-13 20 -8 20q31 4 71 6q34 2 80 2t100 -4z" />
<glyph unicode="&#xb4;" horiz-adv-x="179" d="M12 556q10 6 31.5 16t44.5 20q26 11 56 24q2 1 6 2q3 0 6 -0.5t6 -5.5q5 -10 7 -17t-5 -10q-4 -1 -20 -7.5t-36.5 -15t-41.5 -18t-35 -16.5q-3 -1 -6 -1q-6 0 -10 6q-4 5 -7 12t4 11z" />
<glyph unicode="&#xb7;" horiz-adv-x="77" d="M39 293q13 0 21.5 -10.5t8.5 -25.5q0 -14 -8.5 -24.5t-21.5 -10.5t-21.5 10.5t-8.5 24.5q0 15 8.5 25.5t21.5 10.5z" />
<glyph unicode="&#xb8;" horiz-adv-x="186" d="M101 54q7 7 14.5 -1.5t5.5 -13.5q-2 -3 -5 -9t-8 -12q-5 -7 -11 -15h22q8 0 18 -4t19 -11.5t15 -18t6 -22.5t-11.5 -19.5t-26.5 -11t-30 -5t-22 -1.5q-15 0 -29.5 2t-31.5 6q-8 2 -13 5.5t-6.5 7t1 5.5t9.5 0t18 -3t23 -1.5t23 -1t17 -0.5q24 0 38 8t17 18t-5 18t-28 8 q-12 0 -19 -3t-11.5 -6t-8 -6t-8.5 -3q-9 0 -15 8q-3 4 -5 9l48 73v0z" />
<glyph unicode="&#xbb;" horiz-adv-x="561" d="M37 -44q-14 6 -21 13t-8 14t3 13.5t12 11.5q3 3 19 16.5t40 34.5t53 47t59 53q70 62 156 141q-62 53 -112 97q-21 19 -42.5 37.5t-39 34t-30 26.5t-15.5 15q-8 8 -7 13t5.5 8t10.5 3t8 -3q2 -2 15.5 -14t34.5 -30t46 -40t49.5 -43l45.5 -39t34 -28q19 -16 30 -26.5 t16 -17.5q6 -8 7 -13q-9 -6 -29.5 -23t-48 -41t-60 -52.5t-64.5 -57.5q-77 -68 -167 -150zM180 -44q-14 6 -21 13t-8 14t3 13.5t11 11.5q4 3 20 16.5t39.5 34.5t52.5 47t59 53q70 62 156 141q-62 53 -112 97q-21 19 -42.5 37.5t-39 34t-29.5 26.5t-16 15q-7 8 -6 13t5.5 8 t10.5 3t8 -3q1 -2 15 -14t34.5 -30t45.5 -40t49.5 -43l45.5 -39t34 -28q20 -16 30.5 -26.5t15.5 -17.5q6 -8 8 -13q-9 -6 -29.5 -23t-48 -41t-60 -52.5t-64.5 -57.5q-77 -68 -167 -150z" />
<glyph unicode="&#xbf;" horiz-adv-x="849" d="M769 733q-12 6 -18 10t-8.5 8t-2.5 8t2 11t9.5 17.5t15.5 20.5q10 11 22 24q9 0 15 -5t10 -10q4 -7 7 -15q-15 -14 -22 -26.5t-11.5 -22t-8 -15t-10.5 -5.5zM23 -6q0 25 30 60t79.5 75t112 85t128.5 91t128.5 91.5t112 88t79.5 79.5t30 66q0 8 -6 26t-12 25q7 2 14 2 q6 0 12 -2t11 -8q8 -14 14.5 -33.5t6.5 -42.5q0 -24 -30.5 -59.5t-80 -78t-113 -89.5t-129.5 -94t-129.5 -92t-113 -84t-80 -69t-30.5 -47q0 -4 0.5 -10.5t9 -12.5t29.5 -10t63 -4q34 0 80.5 10.5t97 29t99.5 44.5t88 57t63 66.5t24 73.5q25 -7 31.5 -21t6.5 -22 q0 -19 -19 -47t-53 -58.5t-80.5 -60.5t-101 -53.5t-116 -38.5t-124.5 -15q-20 0 -43 4.5t-43 14.5t-33 25.5t-13 37.5z" />
<glyph unicode="&#xc0;" horiz-adv-x="696" d="M320 -373q0 42 11.5 104t31 136.5t46.5 158.5t57 171q-38 1 -83 1t-92 1q-51 -80 -97 -154t-82 -134q-13 -20 -30.5 -34.5t-43.5 -14.5q-23 0 -30 9q-4 4 -5 9q5 -1 11 2q5 2 11 6.5t13 12.5q10 11 28 38t43.5 66.5t56.5 88.5t67 105q-46 1 -84.5 1t-61.5 -1 q-19 -1 -27.5 5.5t-11.5 14.5q-4 9 -1 20q30 0 65 1q30 1 68.5 1t80.5 1q54 82 113.5 170t120 170t120 151.5t112.5 115.5q10 0 20.5 -1t18.5 -4t11.5 -7t0.5 -10q-21 -42 -49 -104.5t-60 -139t-65.5 -163t-65.5 -176.5q12 -3 17 -11t7 -16q2 -10 1 -21h-11h-13t-18 1 q-27 -80 -51.5 -159.5t-43.5 -153t-30.5 -139t-14.5 -118.5q0 -8 -10 -11t-21.5 -2.5t-20.5 4t-9 9.5zM320 243q48 1 90.5 1.5t71.5 0.5q23 66 47.5 130.5t48 125t46.5 115.5t43 102q-34 -35 -75 -86.5t-86 -114t-92.5 -133t-93.5 -141.5zM812 908q6 -4 3.5 -10.5 t-6.5 -12.5q-5 -6 -10 -6q-3 0 -6 1q-14 7 -35.5 17t-42 18.5t-36.5 15t-19 7.5q-7 2 -5 9t7 17q3 7 11 7q4 0 7 -2q30 -14 56 -25q23 -10 44 -20t32 -16z" />
<glyph unicode="&#xc1;" horiz-adv-x="696" d="M320 -373q0 42 11.5 104t31 136.5t46.5 158.5t57 171q-38 1 -83 1t-92 1q-51 -80 -97 -154t-82 -134q-13 -20 -30.5 -34.5t-43.5 -14.5q-23 0 -30 9q-4 4 -5 9q5 -1 11 2q5 2 11 6.5t13 12.5q10 11 28 38t43.5 66.5t56.5 88.5t67 105q-46 1 -84.5 1t-61.5 -1 q-19 -1 -27.5 5.5t-11.5 14.5q-4 9 -1 20q30 0 65 1q30 1 68.5 1t80.5 1q54 82 113.5 170t120 170t120 151.5t112.5 115.5q10 0 20.5 -1t18.5 -4t11.5 -7t0.5 -10q-21 -42 -49 -104.5t-60 -139t-65.5 -163t-65.5 -176.5q12 -3 17 -11t7 -16q2 -10 1 -21h-11h-13t-18 1 q-27 -80 -51.5 -159.5t-43.5 -153t-30.5 -139t-14.5 -118.5q0 -8 -10 -11t-21.5 -2.5t-20.5 4t-9 9.5zM320 243q48 1 90.5 1.5t71.5 0.5q23 66 47.5 130.5t48 125t46.5 115.5t43 102q-34 -35 -75 -86.5t-86 -114t-92.5 -133t-93.5 -141.5zM666 903q10 6 31.5 16t44.5 20 q26 11 56 24q2 1 6 2q3 0 6 -0.5t6 -5.5q5 -10 7 -17t-5 -10q-4 -1 -20 -7.5t-36.5 -15t-41.5 -18t-35 -16.5q-3 -1 -6 -1q-6 0 -10 6q-4 5 -7 12t4 11z" />
<glyph unicode="&#xc2;" horiz-adv-x="696" d="M320 -373q0 42 11.5 104t31 136.5t46.5 158.5t57 171q-38 1 -83 1t-92 1q-51 -80 -97 -154t-82 -134q-13 -20 -30.5 -34.5t-43.5 -14.5q-23 0 -30 9q-4 4 -5 9q5 -1 11 2q5 2 11 6.5t13 12.5q10 11 28 38t43.5 66.5t56.5 88.5t67 105q-46 1 -84.5 1t-61.5 -1 q-19 -1 -27.5 5.5t-11.5 14.5q-4 9 -1 20q30 0 65 1q30 1 68.5 1t80.5 1q54 82 113.5 170t120 170t120 151.5t112.5 115.5q10 0 20.5 -1t18.5 -4t11.5 -7t0.5 -10q-21 -42 -49 -104.5t-60 -139t-65.5 -163t-65.5 -176.5q12 -3 17 -11t7 -16q2 -10 1 -21h-11h-13t-18 1 q-27 -80 -51.5 -159.5t-43.5 -153t-30.5 -139t-14.5 -118.5q0 -8 -10 -11t-21.5 -2.5t-20.5 4t-9 9.5zM320 243q48 1 90.5 1.5t71.5 0.5q23 66 47.5 130.5t48 125t46.5 115.5t43 102q-34 -35 -75 -86.5t-86 -114t-92.5 -133t-93.5 -141.5zM676 916q2 4 16.5 18.5t31.5 31 t32.5 29.5t20.5 13q8 0 18.5 -8.5t10.5 -14.5q0 -3 1 -17t2.5 -31t3.5 -33.5t4 -23.5q2 -8 -3 -7.5t-12.5 4t-14 9.5t-7.5 9t-1.5 12.5t-2.5 20.5q-2 12 -4 26l-56 -56q-10 -10 -17.5 -5.5t-11.5 6.5t-8.5 7.5t-2.5 9.5z" />
<glyph unicode="&#xc3;" horiz-adv-x="696" d="M320 -373q0 42 11.5 104t31 136.5t46.5 158.5t57 171q-38 1 -83 1t-92 1q-51 -80 -97 -154t-82 -134q-13 -20 -30.5 -34.5t-43.5 -14.5q-23 0 -30 9q-4 4 -5 9q5 -1 11 2q5 2 11 6.5t13 12.5q10 11 28 38t43.5 66.5t56.5 88.5t67 105q-46 1 -84.5 1t-61.5 -1 q-19 -1 -27.5 5.5t-11.5 14.5q-4 9 -1 20q30 0 65 1q30 1 68.5 1t80.5 1q54 82 113.5 170t120 170t120 151.5t112.5 115.5q10 0 20.5 -1t18.5 -4t11.5 -7t0.5 -10q-21 -42 -49 -104.5t-60 -139t-65.5 -163t-65.5 -176.5q12 -3 17 -11t7 -16q2 -10 1 -21h-11h-13t-18 1 q-27 -80 -51.5 -159.5t-43.5 -153t-30.5 -139t-14.5 -118.5q0 -8 -10 -11t-21.5 -2.5t-20.5 4t-9 9.5zM320 243q48 1 90.5 1.5t71.5 0.5q23 66 47.5 130.5t48 125t46.5 115.5t43 102q-34 -35 -75 -86.5t-86 -114t-92.5 -133t-93.5 -141.5zM683 938q0 8 3.5 17.5t9.5 18 t13 14.5t14 6t15 -4t15.5 -9.5t12.5 -11.5t5 -10v-23q8 6 15 12q6 5 12 12.5t9 16.5q3 8 8.5 7.5t11.5 -4.5t10 -9.5t4 -6.5t-4 -10t-13 -20t-22 -22.5t-31 -17.5q-2 0 -7.5 2t-11.5 6t-11 9.5t-5 12.5q-1 14 2 25t1 13q-2 1 -10 -6t-20 -36q-1 -1 -3 -2q-4 -2 -9 1 t-9.5 7.5t-4.5 11.5z" />
<glyph unicode="&#xc4;" horiz-adv-x="696" d="M320 -373q0 42 11.5 104t31 136.5t46.5 158.5t57 171q-38 1 -83 1t-92 1q-51 -80 -97 -154t-82 -134q-13 -20 -30.5 -34.5t-43.5 -14.5q-23 0 -30 9q-4 4 -5 9q5 -1 11 2q5 2 11 6.5t13 12.5q10 11 28 38t43.5 66.5t56.5 88.5t67 105q-46 1 -84.5 1t-61.5 -1 q-19 -1 -27.5 5.5t-11.5 14.5q-4 9 -1 20q30 0 65 1q30 1 68.5 1t80.5 1q54 82 113.5 170t120 170t120 151.5t112.5 115.5q10 0 20.5 -1t18.5 -4t11.5 -7t0.5 -10q-21 -42 -49 -104.5t-60 -139t-65.5 -163t-65.5 -176.5q12 -3 17 -11t7 -16q2 -10 1 -21h-11h-13t-18 1 q-27 -80 -51.5 -159.5t-43.5 -153t-30.5 -139t-14.5 -118.5q0 -8 -10 -11t-21.5 -2.5t-20.5 4t-9 9.5zM320 243q48 1 90.5 1.5t71.5 0.5q23 66 47.5 130.5t48 125t46.5 115.5t43 102q-34 -35 -75 -86.5t-86 -114t-92.5 -133t-93.5 -141.5zM746 926q0 -14 -9 -23t-22 -9 q-12 0 -21 9t-9 23q0 13 9 22t21 9q13 0 22 -9t9 -22zM817 926q0 -14 -9 -23t-22 -9q-12 0 -21 9t-9 23q0 13 9 22t21 9q13 0 22 -9t9 -22z" />
<glyph unicode="&#xc5;" horiz-adv-x="696" d="M320 -373q0 42 11.5 104t31 136.5t46.5 158.5t57 171q-38 1 -83 1t-92 1q-51 -80 -97 -154t-82 -134q-13 -20 -30.5 -34.5t-43.5 -14.5q-23 0 -30 9q-4 4 -5 9q5 -1 11 2q5 2 11 6.5t13 12.5q10 11 28 38t43.5 66.5t56.5 88.5t67 105q-46 1 -84.5 1t-61.5 -1 q-19 -1 -27.5 5.5t-11.5 14.5q-4 9 -1 20q30 0 65 1q30 1 68.5 1t80.5 1q54 82 113.5 170t120 170t120 151.5t112.5 115.5q10 0 20.5 -1t18.5 -4t11.5 -7t0.5 -10q-21 -42 -49 -104.5t-60 -139t-65.5 -163t-65.5 -176.5q12 -3 17 -11t7 -16q2 -10 1 -21h-11h-13t-18 1 q-27 -80 -51.5 -159.5t-43.5 -153t-30.5 -139t-14.5 -118.5q0 -8 -10 -11t-21.5 -2.5t-20.5 4t-9 9.5zM320 243q48 1 90.5 1.5t71.5 0.5q23 66 47.5 130.5t48 125t46.5 115.5t43 102q-34 -35 -75 -86.5t-86 -114t-92.5 -133t-93.5 -141.5zM768 990q17 0 31.5 -16.5 t14.5 -34.5q0 -9 -7.5 -18t-19.5 -17t-26 -13t-27 -5q-25 0 -38.5 16.5t-13.5 30.5q0 7 5.5 15t14.5 14.5t20.5 11t23.5 4.5q7 0 11 6t11 6zM772 935q14 16 10 29q-1 -1 -3 -1t-4 -0.5t-5 1.5q2 -2 3 -5q2 -7 -3 -8q-3 -1 -11.5 -3.5t-18 -6.5t-17 -10t-8.5 -13h16 q11 0 22 4t19 13z" />
<glyph unicode="&#xc6;" horiz-adv-x="975" d="M1175 831q10 0 15 -6.5t5 -14t-3 -13.5t-9 -6q-52 -1 -116 -7t-127.5 -15t-122 -19t-99.5 -19q-24 -36 -38.5 -74t-27 -77.5t-26 -81t-35.5 -83.5q56 14 132.5 25.5t156.5 7.5q12 0 16.5 -4t2 -9.5t-12 -9.5t-25.5 -4q-80 0 -152 -16.5t-129 -38.5q-37 -73 -68.5 -142 t-55 -127.5t-38 -103t-15.5 -68.5q34 13 80.5 28t100.5 28t112 21.5t117 8.5q11 0 18 -4t10.5 -10.5t5 -14t1.5 -14.5q-66 1 -139 -7q-63 -7 -141 -23t-158 -47q4 -11 5 -18t-7 -9q-20 0 -32 12q6 55 30 128t56.5 154t69.5 164.5t70 159.5t57 138.5t30 102.5 q-21 -5 -28 -6.5t-5.5 -1t8.5 2.5t13.5 3.5t9.5 2t-3 -1.5q-18 -6 -29 -3t-17 9q-7 7 -10 19q70 24 130 39.5t122.5 25.5t132.5 14t162 5zM320 -373q0 42 11.5 104t31 136.5t46.5 158.5t57 171q-38 1 -83 1t-92 1q-51 -80 -97 -154t-82 -134q-13 -20 -30.5 -34.5 t-43.5 -14.5q-23 0 -30 9q-4 4 -5 9q5 -1 11 2q5 2 11 6.5t13 12.5q10 11 28 38t43.5 66.5t56.5 88.5t67 105q-46 1 -84.5 1t-61.5 -1q-19 -1 -27.5 5.5t-11.5 14.5q-4 9 -1 20q30 0 65 1q30 1 68.5 1t80.5 1q54 82 113.5 170t120 170t120 151.5t112.5 115.5q10 0 20.5 -1 t18.5 -4t11.5 -7t0.5 -10q-21 -42 -49 -104.5t-60 -139t-65.5 -163t-65.5 -176.5q12 -3 17 -11t7 -16q2 -10 1 -21h-11h-13t-18 1q-27 -80 -51.5 -159.5t-43.5 -153t-30.5 -139t-14.5 -118.5q0 -8 -10 -11t-21.5 -2.5t-20.5 4t-9 9.5zM320 243q48 1 90.5 1.5t71.5 0.5 q23 66 47.5 130.5t48 125t46.5 115.5t43 102q-34 -35 -75 -86.5t-86 -114t-92.5 -133t-93.5 -141.5z" />
<glyph unicode="&#xc7;" d="M166 -141q-77 0 -116.5 46t-39.5 127q0 68 33.5 155.5t89 179.5t125.5 181t143.5 158.5t144 112t125.5 42.5q47 0 75.5 -21t28.5 -50q0 -15 -10.5 -52t-31.5 -87t-52.5 -108.5t-73.5 -117.5q-5 -8 -14 -9t-18 1t-17.5 7t-12.5 9q47 71 85 137q16 28 31.5 57t27.5 57 t20 52t9 41q5 49 -18 49q-30 0 -73 -23.5t-93 -64t-103.5 -96t-105 -118.5t-97.5 -131t-81 -135.5t-55.5 -130.5t-20.5 -116q0 -11 3.5 -32t14 -42.5t29 -37.5t47.5 -16q58 0 157.5 68t247.5 215q19 17 29.5 20t12.5 -3.5t-3.5 -19t-18.5 -25.5q-74 -84 -136.5 -138 t-115 -85.5t-95 -43.5t-77.5 -12zM184 -109q7 7 14.5 -1.5t5.5 -13.5q-2 -3 -5 -9t-8 -12q-5 -7 -11 -15h22q8 0 18 -4t19 -11.5t15 -18t6 -22.5t-11.5 -19.5t-26.5 -11t-30 -5t-22 -1.5q-15 0 -29.5 2t-31.5 6q-8 2 -13 5.5t-6.5 7t1 5.5t9.5 0t18 -3t23 -1.5t23 -1 t17 -0.5q24 0 38 8t17 18t-5 18t-28 8q-12 0 -19 -3t-11.5 -6t-8 -6t-8.5 -3q-9 0 -15 8q-3 4 -5 9l48 73v0z" />
<glyph unicode="&#xc8;" horiz-adv-x="669" d="M869 831q10 -1 15 -7.5t5 -13.5t-3 -13t-9 -6q-105 -2 -203 -15.5t-181 -30.5q-48 -72 -96.5 -155.5t-93.5 -168.5q56 14 123.5 22.5t147.5 4.5q12 0 16.5 -4t2 -9.5t-12 -9.5t-25.5 -4q-80 0 -152 -16.5t-129 -38.5q-37 -73 -68.5 -142t-55 -127.5t-38 -103t-15.5 -68.5 q34 13 80.5 28t100.5 28t112 21.5t117 8.5q11 0 18 -4t10.5 -10.5t5 -14t1.5 -14.5q-66 1 -139 -7q-63 -7 -141 -23t-158 -47q4 -11 5 -18t-7 -9q-20 0 -32 12q-20 -8 -39 -18q-3 -1 -6 0q-2 1 -5 2t-5 6q-3 5 -3 10t2 9t10 9q3 2 10.5 5.5t19.5 8.5q-1 5 -1.5 10.5 t-0.5 10.5q0 27 11.5 69.5t32 96t48 114.5t60.5 126q-18 -9 -32 -17t-24 -14q-11 -7 -19.5 -4t-13.5 9q-7 7 -11 19q16 14 49.5 34t84.5 38q45 87 93.5 171t95.5 159q-64 -16 -108 -29t-63 -19q-18 -6 -29 -3t-17 9q-7 7 -10 19q61 23 127.5 41.5t132.5 32.5l27 40.5 t26 36.5q6 7 14.5 6.5t16 -6t11.5 -13.5t0 -14l-27 -36q62 11 119 18.5t102.5 12t77 5.5t42.5 0zM645 899q6 -4 3.5 -10.5t-6.5 -12.5q-5 -6 -10 -6q-3 0 -6 1q-14 7 -35.5 17t-42 18.5t-36.5 15t-19 7.5q-7 2 -5 9t7 17q3 7 11 7q4 0 7 -2q30 -14 56 -25q23 -10 44 -20 t32 -16z" />
<glyph unicode="&#xc9;" horiz-adv-x="669" d="M869 831q10 -1 15 -7.5t5 -13.5t-3 -13t-9 -6q-105 -2 -203 -15.5t-181 -30.5q-48 -72 -96.5 -155.5t-93.5 -168.5q56 14 123.5 22.5t147.5 4.5q12 0 16.5 -4t2 -9.5t-12 -9.5t-25.5 -4q-80 0 -152 -16.5t-129 -38.5q-37 -73 -68.5 -142t-55 -127.5t-38 -103t-15.5 -68.5 q34 13 80.5 28t100.5 28t112 21.5t117 8.5q11 0 18 -4t10.5 -10.5t5 -14t1.5 -14.5q-66 1 -139 -7q-63 -7 -141 -23t-158 -47q4 -11 5 -18t-7 -9q-20 0 -32 12q-20 -8 -39 -18q-3 -1 -6 0q-2 1 -5 2t-5 6q-3 5 -3 10t2 9t10 9q3 2 10.5 5.5t19.5 8.5q-1 5 -1.5 10.5 t-0.5 10.5q0 27 11.5 69.5t32 96t48 114.5t60.5 126q-18 -9 -32 -17t-24 -14q-11 -7 -19.5 -4t-13.5 9q-7 7 -11 19q16 14 49.5 34t84.5 38q45 87 93.5 171t95.5 159q-64 -16 -108 -29t-63 -19q-18 -6 -29 -3t-17 9q-7 7 -10 19q61 23 127.5 41.5t132.5 32.5l27 40.5 t26 36.5q6 7 14.5 6.5t16 -6t11.5 -13.5t0 -14l-27 -36q62 11 119 18.5t102.5 12t77 5.5t42.5 0zM452 902q10 6 31.5 16t44.5 20q26 11 56 24q2 1 6 2q3 0 6 -0.5t6 -5.5q5 -10 7 -17t-5 -10q-4 -1 -20 -7.5t-36.5 -15t-41.5 -18t-35 -16.5q-3 -1 -6 -1q-6 0 -10 6 q-4 5 -7 12t4 11z" />
<glyph unicode="&#xca;" horiz-adv-x="669" d="M869 831q10 -1 15 -7.5t5 -13.5t-3 -13t-9 -6q-105 -2 -203 -15.5t-181 -30.5q-48 -72 -96.5 -155.5t-93.5 -168.5q56 14 123.5 22.5t147.5 4.5q12 0 16.5 -4t2 -9.5t-12 -9.5t-25.5 -4q-80 0 -152 -16.5t-129 -38.5q-37 -73 -68.5 -142t-55 -127.5t-38 -103t-15.5 -68.5 q34 13 80.5 28t100.5 28t112 21.5t117 8.5q11 0 18 -4t10.5 -10.5t5 -14t1.5 -14.5q-66 1 -139 -7q-63 -7 -141 -23t-158 -47q4 -11 5 -18t-7 -9q-20 0 -32 12q-20 -8 -39 -18q-3 -1 -6 0q-2 1 -5 2t-5 6q-3 5 -3 10t2 9t10 9q3 2 10.5 5.5t19.5 8.5q-1 5 -1.5 10.5 t-0.5 10.5q0 27 11.5 69.5t32 96t48 114.5t60.5 126q-18 -9 -32 -17t-24 -14q-11 -7 -19.5 -4t-13.5 9q-7 7 -11 19q16 14 49.5 34t84.5 38q45 87 93.5 171t95.5 159q-64 -16 -108 -29t-63 -19q-18 -6 -29 -3t-17 9q-7 7 -10 19q61 23 127.5 41.5t132.5 32.5l27 40.5 t26 36.5q6 7 14.5 6.5t16 -6t11.5 -13.5t0 -14l-27 -36q62 11 119 18.5t102.5 12t77 5.5t42.5 0zM512 920q2 4 16.5 18.5t31.5 31t32.5 29.5t20.5 13q8 0 18.5 -8.5t10.5 -14.5q0 -3 1 -17t2.5 -31t3.5 -33.5t4 -23.5q2 -8 -3 -7.5t-12.5 4t-14 9.5t-7.5 9t-1.5 12.5 t-2.5 20.5q-2 12 -4 26l-56 -56q-10 -10 -17.5 -5.5t-11.5 6.5t-8.5 7.5t-2.5 9.5z" />
<glyph unicode="&#xcb;" horiz-adv-x="669" d="M869 831q10 -1 15 -7.5t5 -13.5t-3 -13t-9 -6q-105 -2 -203 -15.5t-181 -30.5q-48 -72 -96.5 -155.5t-93.5 -168.5q56 14 123.5 22.5t147.5 4.5q12 0 16.5 -4t2 -9.5t-12 -9.5t-25.5 -4q-80 0 -152 -16.5t-129 -38.5q-37 -73 -68.5 -142t-55 -127.5t-38 -103t-15.5 -68.5 q34 13 80.5 28t100.5 28t112 21.5t117 8.5q11 0 18 -4t10.5 -10.5t5 -14t1.5 -14.5q-66 1 -139 -7q-63 -7 -141 -23t-158 -47q4 -11 5 -18t-7 -9q-20 0 -32 12q-20 -8 -39 -18q-3 -1 -6 0q-2 1 -5 2t-5 6q-3 5 -3 10t2 9t10 9q3 2 10.5 5.5t19.5 8.5q-1 5 -1.5 10.5 t-0.5 10.5q0 27 11.5 69.5t32 96t48 114.5t60.5 126q-18 -9 -32 -17t-24 -14q-11 -7 -19.5 -4t-13.5 9q-7 7 -11 19q16 14 49.5 34t84.5 38q45 87 93.5 171t95.5 159q-64 -16 -108 -29t-63 -19q-18 -6 -29 -3t-17 9q-7 7 -10 19q61 23 127.5 41.5t132.5 32.5l27 40.5 t26 36.5q6 7 14.5 6.5t16 -6t11.5 -13.5t0 -14l-27 -36q62 11 119 18.5t102.5 12t77 5.5t42.5 0zM603 928q0 -14 -9 -23t-22 -9q-12 0 -21 9t-9 23q0 13 9 22t21 9q13 0 22 -9t9 -22zM674 928q0 -14 -9 -23t-22 -9q-12 0 -21 9t-9 23q0 13 9 22t21 9q13 0 22 -9t9 -22z" />
<glyph unicode="&#xcc;" horiz-adv-x="433" d="M595 842q14 -2 20 -9t8 -14q2 -9 0 -18q-3 1 -7 3q-10 4 -21 4q-32 0 -66.5 -10t-65 -23t-54.5 -26t-35 -18t-19 -1t-13 11q-6 8 -11 20q35 22 72 39t72 27.5t66 14t54 0.5zM504 723q1 -10 -13.5 -43.5t-38.5 -83.5t-54.5 -111.5t-62 -128.5t-61.5 -135t-53 -130 t-36 -114t-11 -87q0 -1 2 -5q17 5 35 8.5t39 7.5q14 2 15 -6t-8 -13q-5 -2 -30 -11t-58 -21.5t-67 -27.5t-58 -30q-2 -1 -8 -2.5t-12 -1.5t-11 1.5t-5 5.5q0 11 28 33.5t99 45.5q-11 9 -13 30q-2 36 10.5 88t34.5 113t51 127.5t59.5 131t60 123.5t52.5 106t37 78t13 39 q-14 -2 -17 1q-2 2 -1 4q0 3 3.5 9t9.5 12.5t14 11t17 4.5q19 0 28 -9t10 -20zM527 905q6 -4 3.5 -10.5t-6.5 -12.5q-5 -6 -10 -6q-3 0 -6 1q-14 7 -35.5 17t-42 18.5t-36.5 15t-19 7.5q-7 2 -5 9t7 17q3 7 11 7q4 0 7 -2q30 -14 56 -25q23 -10 44 -20t32 -16z" />
<glyph unicode="&#xcd;" horiz-adv-x="433" d="M595 842q14 -2 20 -9t8 -14q2 -9 0 -18q-3 1 -7 3q-10 4 -21 4q-32 0 -66.5 -10t-65 -23t-54.5 -26t-35 -18t-19 -1t-13 11q-6 8 -11 20q35 22 72 39t72 27.5t66 14t54 0.5zM504 723q1 -10 -13.5 -43.5t-38.5 -83.5t-54.5 -111.5t-62 -128.5t-61.5 -135t-53 -130 t-36 -114t-11 -87q0 -1 2 -5q17 5 35 8.5t39 7.5q14 2 15 -6t-8 -13q-5 -2 -30 -11t-58 -21.5t-67 -27.5t-58 -30q-2 -1 -8 -2.5t-12 -1.5t-11 1.5t-5 5.5q0 11 28 33.5t99 45.5q-11 9 -13 30q-2 36 10.5 88t34.5 113t51 127.5t59.5 131t60 123.5t52.5 106t37 78t13 39 q-14 -2 -17 1q-2 2 -1 4q0 3 3.5 9t9.5 12.5t14 11t17 4.5q19 0 28 -9t10 -20zM413 896q10 6 31.5 16t44.5 20q26 11 56 24q2 1 6 2q3 0 6 -0.5t6 -5.5q5 -10 7 -17t-5 -10q-4 -1 -20 -7.5t-36.5 -15t-41.5 -18t-35 -16.5q-3 -1 -6 -1q-6 0 -10 6q-4 5 -7 12t4 11z" />
<glyph unicode="&#xce;" horiz-adv-x="433" d="M595 842q14 -2 20 -9t8 -14q2 -9 0 -18q-3 1 -7 3q-10 4 -21 4q-32 0 -66.5 -10t-65 -23t-54.5 -26t-35 -18t-19 -1t-13 11q-6 8 -11 20q35 22 72 39t72 27.5t66 14t54 0.5zM504 723q1 -10 -13.5 -43.5t-38.5 -83.5t-54.5 -111.5t-62 -128.5t-61.5 -135t-53 -130 t-36 -114t-11 -87q0 -1 2 -5q17 5 35 8.5t39 7.5q14 2 15 -6t-8 -13q-5 -2 -30 -11t-58 -21.5t-67 -27.5t-58 -30q-2 -1 -8 -2.5t-12 -1.5t-11 1.5t-5 5.5q0 11 28 33.5t99 45.5q-11 9 -13 30q-2 36 10.5 88t34.5 113t51 127.5t59.5 131t60 123.5t52.5 106t37 78t13 39 q-14 -2 -17 1q-2 2 -1 4q0 3 3.5 9t9.5 12.5t14 11t17 4.5q19 0 28 -9t10 -20zM409 913q2 4 16.5 18.5t31.5 31t32.5 29.5t20.5 13q8 0 18.5 -8.5t10.5 -14.5q0 -3 1 -17t2.5 -31t3.5 -33.5t4 -23.5q2 -8 -3 -7.5t-12.5 4t-14 9.5t-7.5 9t-1.5 12.5t-2.5 20.5q-2 12 -4 26 l-56 -56q-10 -10 -17.5 -5.5t-11.5 6.5t-8.5 7.5t-2.5 9.5z" />
<glyph unicode="&#xcf;" horiz-adv-x="433" d="M595 842q14 -2 20 -9t8 -14q2 -9 0 -18q-3 1 -7 3q-10 4 -21 4q-32 0 -66.5 -10t-65 -23t-54.5 -26t-35 -18t-19 -1t-13 11q-6 8 -11 20q35 22 72 39t72 27.5t66 14t54 0.5zM504 723q1 -10 -13.5 -43.5t-38.5 -83.5t-54.5 -111.5t-62 -128.5t-61.5 -135t-53 -130 t-36 -114t-11 -87q0 -1 2 -5q17 5 35 8.5t39 7.5q14 2 15 -6t-8 -13q-5 -2 -30 -11t-58 -21.5t-67 -27.5t-58 -30q-2 -1 -8 -2.5t-12 -1.5t-11 1.5t-5 5.5q0 11 28 33.5t99 45.5q-11 9 -13 30q-2 36 10.5 88t34.5 113t51 127.5t59.5 131t60 123.5t52.5 106t37 78t13 39 q-14 -2 -17 1q-2 2 -1 4q0 3 3.5 9t9.5 12.5t14 11t17 4.5q19 0 28 -9t10 -20zM463 895q0 -14 -9 -23t-22 -9q-12 0 -21 9t-9 23q0 13 9 22t21 9q13 0 22 -9t9 -22zM534 895q0 -14 -9 -23t-22 -9q-12 0 -21 9t-9 23q0 13 9 22t21 9q13 0 22 -9t9 -22z" />
<glyph unicode="&#xd0;" horiz-adv-x="794" d="M103 -91q-16 0 -33.5 4.5t-31.5 12t-23.5 16.5t-9.5 18q0 18 7.5 36t12.5 26q3 7 9 9.5t11.5 1t7.5 -7t-2 -14.5q-6 -14 -8 -28t1.5 -25t14 -18.5t29.5 -7.5q24 0 67.5 21t98 57t116 85t122 105.5t116 117t98 120.5t68 116t25.5 103q0 29 -12 59t-36.5 54t-61.5 39.5 t-86 15.5q-74 0 -143 -21.5t-129 -55.5t-109.5 -77t-84.5 -87t-54.5 -83.5t-19.5 -67.5q0 -6 4 -9.5t7 -6.5q9 -5 0 -7q-22 0 -34 5t-17.5 11.5t-6.5 12.5t-1 8q0 26 18 66t52.5 85t85 90t115.5 81.5t144.5 59.5t172.5 23q63 0 109 -21t76 -53.5t44.5 -72t14.5 -76.5 q0 -40 -24 -92t-65.5 -110t-96 -119t-115.5 -118.5t-124.5 -108.5t-122.5 -89.5t-110 -60.5t-86 -22zM103 -37q-8 1 -14.5 4.5t-11.5 6.5l-12 8q11 45 30 100t43 114.5t50.5 120t52.5 117.5q61 133 132 272q31 -1 38.5 -10.5t6.5 -18.5q-36 -60 -71.5 -131.5t-67.5 -145 t-60 -143t-48.5 -124.5t-33 -91t-14.5 -41q-5 -17 -6 -28.5t-14 -9.5zM361 341q4 -5 8 -9q3 -4 5.5 -9.5t2.5 -10.5q0 -11 -10 -9t-17 3q-3 0 -27.5 1t-57.5 1.5t-68.5 -0.5t-62.5 -5q-2 1 -5 3q-7 4 -11 11q-13 20 -8 20q31 4 71 6q34 2 80 2t100 -4z" />
<glyph unicode="&#xd1;" horiz-adv-x="822" d="M62 -157q-26 0 -40 11.5t-14 34.5q0 42 15.5 113t41 156.5t59 180t70 184t73 168t68.5 132.5q12 -2 21 -6q8 -4 12 -10t-1 -14q-14 -22 -34.5 -64.5t-45 -98.5t-51.5 -122t-52.5 -135t-49 -138t-41 -130.5t-28 -112t-10.5 -83.5v-27q1 -3 2 -7t3 -4q4 0 17 18.5t29 67.5 q39 122 91 235.5t110 213t119 181.5t119 140.5t110 91t91 32.5q6 0 16 -2t19.5 -7.5t17 -15t7.5 -23.5q0 -18 -15 -66.5t-37 -115t-48 -144.5t-48 -154.5t-37 -145.5t-15 -117q0 -8 1 -21.5t4 -28.5t7.5 -29t11.5 -24t3.5 -16.5t-11.5 -9t-18 1.5t-16 15q-12 23 -19.5 50 t-7.5 53q0 66 14.5 141t37 151t48 148.5t48 133.5t37 106.5t14.5 66.5v5v8t-1 7.5t-3 3.5q-29 0 -75 -30.5t-102 -87.5t-118 -139t-122.5 -185.5t-115.5 -227t-97 -263.5q-9 -29 -27 -37.5t-37 -8.5zM500 889q0 8 3.5 17.5t9.5 18t13 14.5t14 6t15 -4t15.5 -9.5t12.5 -11.5 t5 -10v-23q8 6 15 12q6 5 12 12.5t9 16.5q3 8 8.5 7.5t11.5 -4.5t10 -9.5t4 -6.5t-4 -10t-13 -20t-22 -22.5t-31 -17.5q-2 0 -7.5 2t-11.5 6t-11 9.5t-5 12.5q-1 14 2 25t1 13q-2 1 -10 -6t-20 -36q-1 -1 -3 -2q-4 -2 -9 1t-9.5 7.5t-4.5 11.5z" />
<glyph unicode="&#xd2;" d="M167 -132q-26 0 -52.5 5.5t-48.5 20t-37 40.5t-18 68q-3 47 5 106t23.5 120t38 119t48.5 103.5t54.5 73t56.5 27.5h7q35 65 76 123.5t83.5 103t86 71t84.5 26.5q35 0 59.5 -11t40.5 -29.5t23 -43t7 -50.5q0 -69 -25.5 -160.5t-68.5 -188.5t-98 -191t-115 -168 t-119.5 -119.5t-110.5 -45.5zM150 -111q28 0 64.5 24.5t77.5 67t83.5 100t82.5 124.5t75.5 139t62 144t42 140t15.5 127q0 1 -2 16t-9.5 32.5t-21 31.5t-36.5 14q-32 0 -69.5 -26t-76.5 -69.5t-77.5 -101t-73.5 -120.5q7 -7 11 -15q1 -4 -19 -1q-29 -54 -54 -109.5 t-43 -106.5t-28.5 -95t-10.5 -77q0 -20 0.5 -33t2 -23t4.5 -20t7 -24q1 -4 0 -8.5t-4.5 -7t-9 -0.5t-12.5 11q-14 18 -23 45t-9 57q0 33 9 77t25 94.5t39 104.5t50 108q-9 -8 -34.5 -47.5t-52.5 -107t-48 -161t-21 -208.5v-1q0 -5 3.5 -26t18.5 -44q10 -11 24.5 -18t37.5 -7 zM643 927q6 -4 3.5 -10.5t-6.5 -12.5q-5 -6 -10 -6q-3 0 -6 1q-14 7 -35.5 17t-42 18.5t-36.5 15t-19 7.5q-7 2 -5 9t7 17q3 7 11 7q4 0 7 -2q30 -14 56 -25q23 -10 44 -20t32 -16z" />
<glyph unicode="&#xd3;" d="M167 -132q-26 0 -52.5 5.5t-48.5 20t-37 40.5t-18 68q-3 47 5 106t23.5 120t38 119t48.5 103.5t54.5 73t56.5 27.5h7q35 65 76 123.5t83.5 103t86 71t84.5 26.5q35 0 59.5 -11t40.5 -29.5t23 -43t7 -50.5q0 -69 -25.5 -160.5t-68.5 -188.5t-98 -191t-115 -168 t-119.5 -119.5t-110.5 -45.5zM150 -111q28 0 64.5 24.5t77.5 67t83.5 100t82.5 124.5t75.5 139t62 144t42 140t15.5 127q0 1 -2 16t-9.5 32.5t-21 31.5t-36.5 14q-32 0 -69.5 -26t-76.5 -69.5t-77.5 -101t-73.5 -120.5q7 -7 11 -15q1 -4 -19 -1q-29 -54 -54 -109.5 t-43 -106.5t-28.5 -95t-10.5 -77q0 -20 0.5 -33t2 -23t4.5 -20t7 -24q1 -4 0 -8.5t-4.5 -7t-9 -0.5t-12.5 11q-14 18 -23 45t-9 57q0 33 9 77t25 94.5t39 104.5t50 108q-9 -8 -34.5 -47.5t-52.5 -107t-48 -161t-21 -208.5v-1q0 -5 3.5 -26t18.5 -44q10 -11 24.5 -18t37.5 -7 zM439 924q10 6 31.5 16t44.5 20q26 11 56 24q2 1 6 2q3 0 6 -0.5t6 -5.5q5 -10 7 -17t-5 -10q-4 -1 -20 -7.5t-36.5 -15t-41.5 -18t-35 -16.5q-3 -1 -6 -1q-6 0 -10 6q-4 5 -7 12t4 11z" />
<glyph unicode="&#xd4;" d="M167 -132q-26 0 -52.5 5.5t-48.5 20t-37 40.5t-18 68q-3 47 5 106t23.5 120t38 119t48.5 103.5t54.5 73t56.5 27.5h7q35 65 76 123.5t83.5 103t86 71t84.5 26.5q35 0 59.5 -11t40.5 -29.5t23 -43t7 -50.5q0 -69 -25.5 -160.5t-68.5 -188.5t-98 -191t-115 -168 t-119.5 -119.5t-110.5 -45.5zM150 -111q28 0 64.5 24.5t77.5 67t83.5 100t82.5 124.5t75.5 139t62 144t42 140t15.5 127q0 1 -2 16t-9.5 32.5t-21 31.5t-36.5 14q-32 0 -69.5 -26t-76.5 -69.5t-77.5 -101t-73.5 -120.5q7 -7 11 -15q1 -4 -19 -1q-29 -54 -54 -109.5 t-43 -106.5t-28.5 -95t-10.5 -77q0 -20 0.5 -33t2 -23t4.5 -20t7 -24q1 -4 0 -8.5t-4.5 -7t-9 -0.5t-12.5 11q-14 18 -23 45t-9 57q0 33 9 77t25 94.5t39 104.5t50 108q-9 -8 -34.5 -47.5t-52.5 -107t-48 -161t-21 -208.5v-1q0 -5 3.5 -26t18.5 -44q10 -11 24.5 -18t37.5 -7 zM507 947q2 4 16.5 18.5t31.5 31t32.5 29.5t20.5 13q8 0 18.5 -8.5t10.5 -14.5q0 -3 1 -17t2.5 -31t3.5 -33.5t4 -23.5q2 -8 -3 -7.5t-12.5 4t-14 9.5t-7.5 9t-1.5 12.5t-2.5 20.5q-2 12 -4 26l-56 -56q-10 -10 -17.5 -5.5t-11.5 6.5t-8.5 7.5t-2.5 9.5z" />
<glyph unicode="&#xd5;" d="M167 -132q-26 0 -52.5 5.5t-48.5 20t-37 40.5t-18 68q-3 47 5 106t23.5 120t38 119t48.5 103.5t54.5 73t56.5 27.5h7q35 65 76 123.5t83.5 103t86 71t84.5 26.5q35 0 59.5 -11t40.5 -29.5t23 -43t7 -50.5q0 -69 -25.5 -160.5t-68.5 -188.5t-98 -191t-115 -168 t-119.5 -119.5t-110.5 -45.5zM150 -111q28 0 64.5 24.5t77.5 67t83.5 100t82.5 124.5t75.5 139t62 144t42 140t15.5 127q0 1 -2 16t-9.5 32.5t-21 31.5t-36.5 14q-32 0 -69.5 -26t-76.5 -69.5t-77.5 -101t-73.5 -120.5q7 -7 11 -15q1 -4 -19 -1q-29 -54 -54 -109.5 t-43 -106.5t-28.5 -95t-10.5 -77q0 -20 0.5 -33t2 -23t4.5 -20t7 -24q1 -4 0 -8.5t-4.5 -7t-9 -0.5t-12.5 11q-14 18 -23 45t-9 57q0 33 9 77t25 94.5t39 104.5t50 108q-9 -8 -34.5 -47.5t-52.5 -107t-48 -161t-21 -208.5v-1q0 -5 3.5 -26t18.5 -44q10 -11 24.5 -18t37.5 -7 zM479 950q0 8 3.5 17.5t9.5 18t13 14.5t14 6t15 -4t15.5 -9.5t12.5 -11.5t5 -10v-23q8 6 15 12q6 5 12 12.5t9 16.5q3 8 8.5 7.5t11.5 -4.5t10 -9.5t4 -6.5t-4 -10t-13 -20t-22 -22.5t-31 -17.5q-2 0 -7.5 2t-11.5 6t-11 9.5t-5 12.5q-1 14 2 25t1 13q-2 1 -10 -6t-20 -36 q-1 -1 -3 -2q-4 -2 -9 1t-9.5 7.5t-4.5 11.5z" />
<glyph unicode="&#xd6;" d="M167 -132q-26 0 -52.5 5.5t-48.5 20t-37 40.5t-18 68q-3 47 5 106t23.5 120t38 119t48.5 103.5t54.5 73t56.5 27.5h7q35 65 76 123.5t83.5 103t86 71t84.5 26.5q35 0 59.5 -11t40.5 -29.5t23 -43t7 -50.5q0 -69 -25.5 -160.5t-68.5 -188.5t-98 -191t-115 -168 t-119.5 -119.5t-110.5 -45.5zM150 -111q28 0 64.5 24.5t77.5 67t83.5 100t82.5 124.5t75.5 139t62 144t42 140t15.5 127q0 1 -2 16t-9.5 32.5t-21 31.5t-36.5 14q-32 0 -69.5 -26t-76.5 -69.5t-77.5 -101t-73.5 -120.5q7 -7 11 -15q1 -4 -19 -1q-29 -54 -54 -109.5 t-43 -106.5t-28.5 -95t-10.5 -77q0 -20 0.5 -33t2 -23t4.5 -20t7 -24q1 -4 0 -8.5t-4.5 -7t-9 -0.5t-12.5 11q-14 18 -23 45t-9 57q0 33 9 77t25 94.5t39 104.5t50 108q-9 -8 -34.5 -47.5t-52.5 -107t-48 -161t-21 -208.5v-1q0 -5 3.5 -26t18.5 -44q10 -11 24.5 -18t37.5 -7 zM563 950q0 -14 -9 -23t-22 -9q-12 0 -21 9t-9 23q0 13 9 22t21 9q13 0 22 -9t9 -22zM634 950q0 -14 -9 -23t-22 -9q-12 0 -21 9t-9 23q0 13 9 22t21 9q13 0 22 -9t9 -22z" />
<glyph unicode="&#xd7;" horiz-adv-x="227" d="M198 459q23 -5 20 -8q-8 -11 -19 -23q-10 -11 -23.5 -26t-30.5 -32q15 -16 30.5 -33.5t32.5 -36.5q0 -6 -1 -12q-1 -5 -3 -11t-6 -10t-7.5 -3t-6.5 4.5t-5 7.5t-4 7t-17.5 20.5t-38.5 40.5q-17 -17 -36.5 -34.5t-42.5 -36.5q-6 0 -12 1q-5 1 -10.5 2.5t-9.5 6.5 q-4 4 -3 7.5t4.5 6t7.5 5t7 4.5t23.5 20t46.5 44q-18 19 -36.5 36.5t-35.5 29.5q-1 1 -1 5q0 2 -0.5 6.5t1.5 9.5q3 23 8 20q11 -10 25 -22q12 -11 28.5 -25.5t36.5 -34.5q16 17 31 33t26 30q1 0 5 1q2 0 6.5 0.5t9.5 -0.5z" />
<glyph unicode="&#xd8;" d="M167 -132q-26 0 -52.5 5.5t-48.5 20t-37 40.5t-18 68q-3 47 5 106t23.5 120t38 119t48.5 103.5t54.5 73t56.5 27.5h7q35 65 76 123.5t83.5 103t86 71t84.5 26.5q35 0 59.5 -11t40.5 -29.5t23 -43t7 -50.5q0 -69 -25.5 -160.5t-68.5 -188.5t-98 -191t-115 -168 t-119.5 -119.5t-110.5 -45.5zM150 -111q28 0 64.5 24.5t77.5 67t83.5 100t82.5 124.5t75.5 139t62 144t42 140t15.5 127q0 1 -2 16t-9.5 32.5t-21 31.5t-36.5 14q-32 0 -69.5 -26t-76.5 -69.5t-77.5 -101t-73.5 -120.5q7 -7 11 -15q1 -4 -19 -1q-29 -54 -54 -109.5 t-43 -106.5t-28.5 -95t-10.5 -77q0 -20 0.5 -33t2 -23t4.5 -20t7 -24q1 -4 0 -8.5t-4.5 -7t-9 -0.5t-12.5 11q-14 18 -23 45t-9 57q0 33 9 77t25 94.5t39 104.5t50 108q-9 -8 -34.5 -47.5t-52.5 -107t-48 -161t-21 -208.5v-1q0 -5 3.5 -26t18.5 -44q10 -11 24.5 -18t37.5 -7 zM565 742q20 -9 26.5 -16.5t8.5 -12.5q1 -6 -3 -11q-25 -32 -60 -89.5t-73.5 -126t-76.5 -141.5t-69.5 -134.5t-52.5 -105t-26 -54.5q-7 -17 -10 -33t-5.5 -28.5t-6 -20.5t-12.5 -8t-13.5 4t-7 9t-3 10.5t-0.5 8.5q0 30 16.5 78t43.5 106.5t61.5 122.5t70.5 127 q84 147 192 315z" />
<glyph unicode="&#xd9;" horiz-adv-x="746" d="M475 -120q-49 -12 -52 1q0 40 9 93t25 113.5t37.5 126t46.5 131.5t52.5 130t54.5 122q-40 -62 -81.5 -133.5t-84 -141t-85 -132.5t-85 -109.5t-84 -71t-81.5 -16.5q-54 0 -84.5 29t-42 77.5t-7.5 112t19.5 133t39 139.5t51.5 132.5t57 112t54 76.5q10 11 21 16.5t20 7.5 t15.5 2h8.5t7.5 -1.5t11.5 -4.5t10.5 -6.5t4.5 -7.5t-5.5 -6.5t-14 -5.5t-17.5 -8t-15 -15q-5 -6 -22.5 -34t-41.5 -72.5t-50.5 -103.5t-49.5 -127.5t-37.5 -145.5t-14.5 -156q0 -35 11.5 -63t25.5 -47q9 -8 20.5 -13t26.5 -5q31 0 68 30.5t78 81t84 116t86 136t85 140.5 t80 129.5t71.5 103.5t59.5 62q8 1 17 0q8 -1 16 -5t16 -12q-47 -79 -89 -166.5t-77.5 -174.5t-65 -169t-50.5 -150.5t-33.5 -119t-15.5 -74.5q-2 -17 -2.5 -31t-1.5 -26zM624 837q6 -4 3.5 -10.5t-6.5 -12.5q-5 -6 -10 -6q-3 0 -6 1q-14 7 -35.5 17t-42 18.5t-36.5 15 t-19 7.5q-7 2 -5 9t7 17q3 7 11 7q4 0 7 -2q30 -14 56 -25q23 -10 44 -20t32 -16z" />
<glyph unicode="&#xda;" horiz-adv-x="746" d="M475 -120q-49 -12 -52 1q0 40 9 93t25 113.5t37.5 126t46.5 131.5t52.5 130t54.5 122q-40 -62 -81.5 -133.5t-84 -141t-85 -132.5t-85 -109.5t-84 -71t-81.5 -16.5q-54 0 -84.5 29t-42 77.5t-7.5 112t19.5 133t39 139.5t51.5 132.5t57 112t54 76.5q10 11 21 16.5t20 7.5 t15.5 2h8.5t7.5 -1.5t11.5 -4.5t10.5 -6.5t4.5 -7.5t-5.5 -6.5t-14 -5.5t-17.5 -8t-15 -15q-5 -6 -22.5 -34t-41.5 -72.5t-50.5 -103.5t-49.5 -127.5t-37.5 -145.5t-14.5 -156q0 -35 11.5 -63t25.5 -47q9 -8 20.5 -13t26.5 -5q31 0 68 30.5t78 81t84 116t86 136t85 140.5 t80 129.5t71.5 103.5t59.5 62q8 1 17 0q8 -1 16 -5t16 -12q-47 -79 -89 -166.5t-77.5 -174.5t-65 -169t-50.5 -150.5t-33.5 -119t-15.5 -74.5q-2 -17 -2.5 -31t-1.5 -26zM454 801q10 6 31.5 16t44.5 20q26 11 56 24q2 1 6 2q3 0 6 -0.5t6 -5.5q5 -10 7 -17t-5 -10 q-4 -1 -20 -7.5t-36.5 -15t-41.5 -18t-35 -16.5q-3 -1 -6 -1q-6 0 -10 6q-4 5 -7 12t4 11z" />
<glyph unicode="&#xdb;" horiz-adv-x="746" d="M475 -120q-49 -12 -52 1q0 40 9 93t25 113.5t37.5 126t46.5 131.5t52.5 130t54.5 122q-40 -62 -81.5 -133.5t-84 -141t-85 -132.5t-85 -109.5t-84 -71t-81.5 -16.5q-54 0 -84.5 29t-42 77.5t-7.5 112t19.5 133t39 139.5t51.5 132.5t57 112t54 76.5q10 11 21 16.5t20 7.5 t15.5 2h8.5t7.5 -1.5t11.5 -4.5t10.5 -6.5t4.5 -7.5t-5.5 -6.5t-14 -5.5t-17.5 -8t-15 -15q-5 -6 -22.5 -34t-41.5 -72.5t-50.5 -103.5t-49.5 -127.5t-37.5 -145.5t-14.5 -156q0 -35 11.5 -63t25.5 -47q9 -8 20.5 -13t26.5 -5q31 0 68 30.5t78 81t84 116t86 136t85 140.5 t80 129.5t71.5 103.5t59.5 62q8 1 17 0q8 -1 16 -5t16 -12q-47 -79 -89 -166.5t-77.5 -174.5t-65 -169t-50.5 -150.5t-33.5 -119t-15.5 -74.5q-2 -17 -2.5 -31t-1.5 -26zM458 824q2 4 16.5 18.5t31.5 31t32.5 29.5t20.5 13q8 0 18.5 -8.5t10.5 -14.5q0 -3 1 -17t2.5 -31 t3.5 -33.5t4 -23.5q2 -8 -3 -7.5t-12.5 4t-14 9.5t-7.5 9t-1.5 12.5t-2.5 20.5q-2 12 -4 26l-56 -56q-10 -10 -17.5 -5.5t-11.5 6.5t-8.5 7.5t-2.5 9.5z" />
<glyph unicode="&#xdc;" horiz-adv-x="746" d="M475 -120q-49 -12 -52 1q0 40 9 93t25 113.5t37.5 126t46.5 131.5t52.5 130t54.5 122q-40 -62 -81.5 -133.5t-84 -141t-85 -132.5t-85 -109.5t-84 -71t-81.5 -16.5q-54 0 -84.5 29t-42 77.5t-7.5 112t19.5 133t39 139.5t51.5 132.5t57 112t54 76.5q10 11 21 16.5t20 7.5 t15.5 2h8.5t7.5 -1.5t11.5 -4.5t10.5 -6.5t4.5 -7.5t-5.5 -6.5t-14 -5.5t-17.5 -8t-15 -15q-5 -6 -22.5 -34t-41.5 -72.5t-50.5 -103.5t-49.5 -127.5t-37.5 -145.5t-14.5 -156q0 -35 11.5 -63t25.5 -47q9 -8 20.5 -13t26.5 -5q31 0 68 30.5t78 81t84 116t86 136t85 140.5 t80 129.5t71.5 103.5t59.5 62q8 1 17 0q8 -1 16 -5t16 -12q-47 -79 -89 -166.5t-77.5 -174.5t-65 -169t-50.5 -150.5t-33.5 -119t-15.5 -74.5q-2 -17 -2.5 -31t-1.5 -26zM531 818q0 -14 -9 -23t-22 -9q-12 0 -21 9t-9 23q0 13 9 22t21 9q13 0 22 -9t9 -22zM602 818 q0 -14 -9 -23t-22 -9q-12 0 -21 9t-9 23q0 13 9 22t21 9q13 0 22 -9t9 -22z" />
<glyph unicode="&#xdd;" horiz-adv-x="506" d="M230 -85q-24 -5 -36.5 3t-14.5 14q0 44 31.5 126t83 183.5t117.5 211.5t134 211q-87 -101 -146.5 -190.5t-105 -157.5t-84 -108.5t-82.5 -43.5q-52 0 -80.5 23.5t-37.5 64t-2 94t25 113t44.5 122t55.5 120.5t58.5 108.5t54.5 85.5q10 11 20.5 16.5t19.5 7.5t16 2h9 t7.5 -1.5t11.5 -4.5t10.5 -6.5t4.5 -7.5q0 -5 -6 -7.5t-14 -5.5t-17 -8t-16 -14q-5 -6 -21 -29t-38 -60t-48 -87t-50.5 -110.5t-45 -130.5t-31.5 -147q0 -14 0.5 -30t2.5 -30q5 -16 12 -28.5t15 -22.5q8 -5 19 -5q25 0 55.5 31.5t70 85t88.5 125.5t111.5 153.5t138.5 167 t169 167.5q8 1 17 0q8 -1 16 -4.5t16 -12.5q-57 -59 -118 -141t-120 -173.5t-112 -185t-95 -175.5t-69.5 -146.5t-34.5 -96.5q-4 -17 -6 -35.5t-3 -30.5zM49 -164q-7 6 -11 12q-3 5 -4 11t7 11q7 5 34 15t67.5 17.5t92 8.5t109.5 -13q1 -1 -1 -3q-4 -4 -18 -5q-9 -1 -40 -2 t-72 -5.5t-85 -15.5t-79 -31zM444 889q10 6 31.5 16t44.5 20q26 11 56 24q2 1 6 2q3 0 6 -0.5t6 -5.5q5 -10 7 -17t-5 -10q-4 -1 -20 -7.5t-36.5 -15t-41.5 -18t-35 -16.5q-3 -1 -6 -1q-6 0 -10 6q-4 5 -7 12t4 11z" />
<glyph unicode="&#xde;" horiz-adv-x="674" d="M714 738q21 0 43 -6.5t40.5 -18t30 -26.5t11.5 -33q0 -35 -30.5 -84.5t-80 -103.5t-112 -106.5t-127.5 -94.5t-126.5 -68t-108.5 -26q-29 0 -56.5 8.5t-43.5 21.5q-24 -54 -41.5 -101.5t-27.5 -87.5q-3 -13 -4 -25.5t-2 -22t-3.5 -15.5t-7.5 -6q-17 0 -32 5q-8 2 -16 5 q-1 28 8 70q8 36 27 91t58 133q19 39 44 88t52.5 103.5t56 111.5t55.5 110q62 125 130 259q4 1 9 1q8 0 21 -8q10 -8 14 -17q2 -4 2 -8q-32 -71 -70 -146.5t-80 -153.5q29 23 68.5 49.5t87 49t101 37.5t110.5 15zM235 193q36 0 90.5 26.5t115.5 68.5t122.5 94.5t110.5 105.5 t80 100t31 79q0 13 -12 27.5t-46 14.5q-22 0 -70 -10t-112 -41t-138 -88.5t-148 -152.5q-24 -47 -46.5 -92t-42.5 -87q7 -14 22 -29.5t43 -15.5z" />
<glyph unicode="&#xdf;" horiz-adv-x="470" d="M682 861q0 -23 -20.5 -66t-54 -96.5t-77.5 -112.5t-91.5 -114t-94 -101.5t-86.5 -73.5q25 -11 43.5 -33t18.5 -57q0 -27 -11.5 -50.5t-30.5 -41.5t-43 -28.5t-48 -10.5q-42 0 -83.5 13.5t-61.5 31.5q1 3 4 5q6 4 11 3q3 -1 11.5 -5.5t21.5 -9t29 -8t34 -3.5 q21 0 42.5 7.5t39.5 22t29 34.5t11 46q0 23 -10.5 41t-27.5 29q-16 -8 -29.5 -13t-24.5 -5q-24 0 -31.5 6.5t-2.5 15t19.5 15t34.5 6.5h12q26 17 67.5 57.5t89 95t95.5 116.5t86.5 121t63 110t24.5 82q-51 0 -106 -29t-111 -79t-110.5 -116.5t-105 -141t-96 -153t-81.5 -153 t-62 -140t-39 -114.5q-2 -8 -6 -17t-17 -9q-7 0 -12 2t-9 4l-8 6q21 91 67 198t108.5 215t135.5 208t147.5 177.5t145.5 124t128 46.5q24 0 38 -8t21.5 -18.5t10 -19.5t2.5 -12z" />
<glyph unicode="&#xe0;" horiz-adv-x="499" d="M-35 0q-28 0 -48 21.5t-20 46.5q0 16 10.5 44t29.5 60.5t45 66.5t57 61.5t66.5 45t72.5 17.5q22 0 40.5 -10.5t27.5 -20.5q16 21 29 36.5t19 22.5q9 11 16 14.5t12 3.5t10 -3l29 -25q-3 -5 -16.5 -21t-31 -38.5t-37.5 -50.5t-36.5 -57t-27.5 -58t-11 -53q0 -8 4 -21 t17 -13q29 0 65.5 21.5t78.5 55.5t88.5 75.5t95.5 80.5q2 1 5 2q4 1 9 -3q3 -5 -1 -10.5t-6 -7.5q-44 -51 -92 -98t-92 -82.5t-80 -56.5t-54 -21q-10 0 -26 4t-31 14t-26 28t-11 45q0 14 5 36q-27 -31 -55.5 -58.5t-54 -48.5t-45.5 -33t-30 -12zM-39 45q10 0 27 10.5t37 28 t42 40t44 45.5q50 55 108 125q3 3 5 7q-4 9 -13 17.5t-26 8.5q-29 0 -58.5 -18t-56.5 -45t-50 -60t-40 -62t-26.5 -51t-9.5 -28q0 -18 17 -18zM250 420q6 -4 3.5 -10.5t-6.5 -12.5q-5 -6 -10 -6q-3 0 -6 1q-14 7 -35.5 17t-42 18.5t-36.5 15t-19 7.5q-7 2 -5 9t7 17 q3 7 11 7q4 0 7 -2q30 -14 56 -25q23 -10 44 -20t32 -16z" />
<glyph unicode="&#xe1;" horiz-adv-x="499" d="M-35 0q-28 0 -48 21.5t-20 46.5q0 16 10.5 44t29.5 60.5t45 66.5t57 61.5t66.5 45t72.5 17.5q22 0 40.5 -10.5t27.5 -20.5q16 21 29 36.5t19 22.5q9 11 16 14.5t12 3.5t10 -3l29 -25q-3 -5 -16.5 -21t-31 -38.5t-37.5 -50.5t-36.5 -57t-27.5 -58t-11 -53q0 -8 4 -21 t17 -13q29 0 65.5 21.5t78.5 55.5t88.5 75.5t95.5 80.5q2 1 5 2q4 1 9 -3q3 -5 -1 -10.5t-6 -7.5q-44 -51 -92 -98t-92 -82.5t-80 -56.5t-54 -21q-10 0 -26 4t-31 14t-26 28t-11 45q0 14 5 36q-27 -31 -55.5 -58.5t-54 -48.5t-45.5 -33t-30 -12zM-39 45q10 0 27 10.5t37 28 t42 40t44 45.5q50 55 108 125q3 3 5 7q-4 9 -13 17.5t-26 8.5q-29 0 -58.5 -18t-56.5 -45t-50 -60t-40 -62t-26.5 -51t-9.5 -28q0 -18 17 -18zM121 418q10 6 31.5 16t44.5 20q26 11 56 24q2 1 6 2q3 0 6 -0.5t6 -5.5q5 -10 7 -17t-5 -10q-4 -1 -20 -7.5t-36.5 -15t-41.5 -18 t-35 -16.5q-3 -1 -6 -1q-6 0 -10 6q-4 5 -7 12t4 11z" />
<glyph unicode="&#xe2;" horiz-adv-x="499" d="M-35 0q-28 0 -48 21.5t-20 46.5q0 16 10.5 44t29.5 60.5t45 66.5t57 61.5t66.5 45t72.5 17.5q22 0 40.5 -10.5t27.5 -20.5q16 21 29 36.5t19 22.5q9 11 16 14.5t12 3.5t10 -3l29 -25q-3 -5 -16.5 -21t-31 -38.5t-37.5 -50.5t-36.5 -57t-27.5 -58t-11 -53q0 -8 4 -21 t17 -13q29 0 65.5 21.5t78.5 55.5t88.5 75.5t95.5 80.5q2 1 5 2q4 1 9 -3q3 -5 -1 -10.5t-6 -7.5q-44 -51 -92 -98t-92 -82.5t-80 -56.5t-54 -21q-10 0 -26 4t-31 14t-26 28t-11 45q0 14 5 36q-27 -31 -55.5 -58.5t-54 -48.5t-45.5 -33t-30 -12zM-39 45q10 0 27 10.5t37 28 t42 40t44 45.5q50 55 108 125q3 3 5 7q-4 9 -13 17.5t-26 8.5q-29 0 -58.5 -18t-56.5 -45t-50 -60t-40 -62t-26.5 -51t-9.5 -28q0 -18 17 -18zM110 435q2 4 16.5 18.5t31.5 31t32.5 29.5t20.5 13q8 0 18.5 -8.5t10.5 -14.5q0 -3 1 -17t2.5 -31t3.5 -33.5t4 -23.5 q2 -8 -3 -7.5t-12.5 4t-14 9.5t-7.5 9t-1.5 12.5t-2.5 20.5q-2 12 -4 26l-56 -56q-10 -10 -17.5 -5.5t-11.5 6.5t-8.5 7.5t-2.5 9.5z" />
<glyph unicode="&#xe3;" horiz-adv-x="499" d="M-35 0q-28 0 -48 21.5t-20 46.5q0 16 10.5 44t29.5 60.5t45 66.5t57 61.5t66.5 45t72.5 17.5q22 0 40.5 -10.5t27.5 -20.5q16 21 29 36.5t19 22.5q9 11 16 14.5t12 3.5t10 -3l29 -25q-3 -5 -16.5 -21t-31 -38.5t-37.5 -50.5t-36.5 -57t-27.5 -58t-11 -53q0 -8 4 -21 t17 -13q29 0 65.5 21.5t78.5 55.5t88.5 75.5t95.5 80.5q2 1 5 2q4 1 9 -3q3 -5 -1 -10.5t-6 -7.5q-44 -51 -92 -98t-92 -82.5t-80 -56.5t-54 -21q-10 0 -26 4t-31 14t-26 28t-11 45q0 14 5 36q-27 -31 -55.5 -58.5t-54 -48.5t-45.5 -33t-30 -12zM-39 45q10 0 27 10.5t37 28 t42 40t44 45.5q50 55 108 125q3 3 5 7q-4 9 -13 17.5t-26 8.5q-29 0 -58.5 -18t-56.5 -45t-50 -60t-40 -62t-26.5 -51t-9.5 -28q0 -18 17 -18zM122 436q0 8 3.5 17.5t9.5 18t13 14.5t14 6t15 -4t15.5 -9.5t12.5 -11.5t5 -10v-23q8 6 15 12q6 5 12 12.5t9 16.5q3 8 8.5 7.5 t11.5 -4.5t10 -9.5t4 -6.5t-4 -10t-13 -20t-22 -22.5t-31 -17.5q-2 0 -7.5 2t-11.5 6t-11 9.5t-5 12.5q-1 14 2 25t1 13q-2 1 -10 -6t-20 -36q-1 -1 -3 -2q-4 -2 -9 1t-9.5 7.5t-4.5 11.5z" />
<glyph unicode="&#xe4;" horiz-adv-x="499" d="M-35 0q-28 0 -48 21.5t-20 46.5q0 16 10.5 44t29.5 60.5t45 66.5t57 61.5t66.5 45t72.5 17.5q22 0 40.5 -10.5t27.5 -20.5q16 21 29 36.5t19 22.5q9 11 16 14.5t12 3.5t10 -3l29 -25q-3 -5 -16.5 -21t-31 -38.5t-37.5 -50.5t-36.5 -57t-27.5 -58t-11 -53q0 -8 4 -21 t17 -13q29 0 65.5 21.5t78.5 55.5t88.5 75.5t95.5 80.5q2 1 5 2q4 1 9 -3q3 -5 -1 -10.5t-6 -7.5q-44 -51 -92 -98t-92 -82.5t-80 -56.5t-54 -21q-10 0 -26 4t-31 14t-26 28t-11 45q0 14 5 36q-27 -31 -55.5 -58.5t-54 -48.5t-45.5 -33t-30 -12zM-39 45q10 0 27 10.5t37 28 t42 40t44 45.5q50 55 108 125q3 3 5 7q-4 9 -13 17.5t-26 8.5q-29 0 -58.5 -18t-56.5 -45t-50 -60t-40 -62t-26.5 -51t-9.5 -28q0 -18 17 -18zM198 428q0 -14 -9 -23t-22 -9q-12 0 -21 9t-9 23q0 13 9 22t21 9q13 0 22 -9t9 -22zM269 428q0 -14 -9 -23t-22 -9q-12 0 -21 9 t-9 23q0 13 9 22t21 9q13 0 22 -9t9 -22z" />
<glyph unicode="&#xe5;" horiz-adv-x="499" d="M-35 0q-28 0 -48 21.5t-20 46.5q0 16 10.5 44t29.5 60.5t45 66.5t57 61.5t66.5 45t72.5 17.5q22 0 40.5 -10.5t27.5 -20.5q16 21 29 36.5t19 22.5q9 11 16 14.5t12 3.5t10 -3l29 -25q-3 -5 -16.5 -21t-31 -38.5t-37.5 -50.5t-36.5 -57t-27.5 -58t-11 -53q0 -8 4 -21 t17 -13q29 0 65.5 21.5t78.5 55.5t88.5 75.5t95.5 80.5q2 1 5 2q4 1 9 -3q3 -5 -1 -10.5t-6 -7.5q-44 -51 -92 -98t-92 -82.5t-80 -56.5t-54 -21q-10 0 -26 4t-31 14t-26 28t-11 45q0 14 5 36q-27 -31 -55.5 -58.5t-54 -48.5t-45.5 -33t-30 -12zM-39 45q10 0 27 10.5t37 28 t42 40t44 45.5q50 55 108 125q3 3 5 7q-4 9 -13 17.5t-26 8.5q-29 0 -58.5 -18t-56.5 -45t-50 -60t-40 -62t-26.5 -51t-9.5 -28q0 -18 17 -18zM216 501q17 0 31.5 -16.5t14.5 -34.5q0 -9 -7.5 -18t-19.5 -17t-26 -13t-27 -5q-25 0 -38.5 16.5t-13.5 30.5q0 7 5.5 15 t14.5 14.5t20.5 11t23.5 4.5q7 0 11 6t11 6zM220 446q14 16 10 29q-1 -1 -3 -1t-4 -0.5t-5 1.5q2 -2 3 -5q2 -7 -3 -8q-3 -1 -11.5 -3.5t-18 -6.5t-17 -10t-8.5 -13h16q11 0 22 4t19 13z" />
<glyph unicode="&#xe6;" horiz-adv-x="644" d="M-35 0q-28 0 -48 21.5t-20 46.5q0 16 10.5 44t29.5 60.5t45 66.5t57 61.5t66.5 45t72.5 17.5q22 0 40.5 -10.5t27.5 -20.5q16 21 29 36.5t19 22.5q9 11 16 14.5t12 3.5t10 -3l29 -25q-3 -5 -16.5 -21t-31 -38.5t-37.5 -50.5t-36.5 -57t-27.5 -58t-11 -53q0 21 0.5 41 t-3.5 30t-15 6.5t-33 -28.5q-27 -31 -55.5 -58.5t-54 -48.5t-45.5 -33t-30 -12zM-39 45q10 0 27 10.5t37 28t42 40t44 45.5q50 55 108 125q3 3 5 7q-4 9 -13 17.5t-26 8.5q-29 0 -58.5 -18t-56.5 -45t-50 -60t-40 -62t-26.5 -51t-9.5 -28q0 -18 17 -18zM272 -23 q-9 0 -27 3.5t-37 17.5t-33 41.5t-14 76.5q0 50 22.5 107t59.5 105.5t84.5 80.5t97.5 32q10 0 21 -6t20.5 -16t15.5 -21.5t6 -21.5q0 -26 -23.5 -64.5t-56 -75.5t-67.5 -63t-59 -26q-23 0 -36.5 13.5t-21.5 29.5q-6 -15 -9 -25.5t-4.5 -19.5t-2.5 -18.5t-1 -21.5 q0 -37 13 -59.5t39 -22.5q29 0 62.5 11.5t68.5 30.5t70 43t67 50q75 59 152 135q3 4 7 3.5t6.5 -3t2 -7.5t-4.5 -10q-63 -75 -126.5 -131t-120 -93.5t-101.5 -56t-70 -18.5zM277 200q19 0 47.5 23.5t55.5 54.5t46 59.5t19 39.5q0 8 -6.5 15.5t-15.5 7.5q-20 0 -44 -14 t-49 -38t-48 -55t-40 -64q4 -11 12.5 -20t22.5 -9z" />
<glyph unicode="&#xe7;" horiz-adv-x="450" d="M67 -22q-18 0 -37.5 6.5t-36 20.5t-27 36t-10.5 54q0 48 13.5 93t36 83.5t51 70.5t58 54.5t57.5 35t50 12.5q18 0 35 -6t29.5 -15t20.5 -20t8 -21q0 -17 -10 -40t-22 -44q-14 -25 -31 -51q-13 3 -22 7q-8 3 -13 7.5t-2 9.5q15 27 24.5 45.5t14.5 31t7 20t2 13.5 q0 5 -2 12.5t-13 7.5q-23 0 -50 -14t-54 -37t-52 -54t-44 -65t-30.5 -69.5t-11.5 -67.5q0 -31 12.5 -54.5t40.5 -23.5q25 0 56.5 12t66 31.5t70.5 44t70 50.5q78 61 162 139l7 7t8.5 7t8.5 4.5t7 -0.5q5 -4 -2 -13.5t-18 -21.5q-69 -74 -133 -129.5t-118.5 -93t-98.5 -56.5 t-73 -19h-5v0zM97 9q7 7 14.5 -1.5t5.5 -13.5q-2 -3 -5 -9t-8 -12q-5 -7 -11 -15h22q8 0 18 -4t19 -11.5t15 -18t6 -22.5t-11.5 -19.5t-26.5 -11t-30 -5t-22 -1.5q-15 0 -29.5 2t-31.5 6q-8 2 -13 5.5t-6.5 7t1 5.5t9.5 0t18 -3t23 -1.5t23 -1t17 -0.5q24 0 38 8t17 18 t-5 18t-28 8q-12 0 -19 -3t-11.5 -6t-8 -6t-8.5 -3q-9 0 -15 8q-3 4 -5 9l48 73v0z" />
<glyph unicode="&#xe8;" horiz-adv-x="442" d="M70 -23q-9 0 -27 3.5t-37 17.5t-33 41.5t-14 76.5q0 50 22.5 107t59.5 105.5t84.5 80.5t97.5 32q10 0 21 -6t20.5 -16t15.5 -21.5t6 -21.5q0 -26 -23.5 -64.5t-56 -75.5t-67.5 -63t-59 -26q-23 0 -36.5 13.5t-21.5 29.5q-6 -15 -9 -25.5t-4.5 -19.5t-2.5 -18.5t-1 -21.5 q0 -37 13 -59.5t39 -22.5q29 0 62.5 11.5t68.5 30.5t70 43t67 50q75 59 152 135q3 4 7 3.5t6.5 -3t2 -7.5t-4.5 -10q-63 -75 -126.5 -131t-120 -93.5t-101.5 -56t-70 -18.5zM75 200q19 0 47.5 23.5t55.5 54.5t46 59.5t19 39.5q0 8 -6.5 15.5t-15.5 7.5q-20 0 -44 -14 t-49 -38t-48 -55t-40 -64q4 -11 12.5 -20t22.5 -9zM275 485q6 -4 3.5 -10.5t-6.5 -12.5q-5 -6 -10 -6q-3 0 -6 1q-14 7 -35.5 17t-42 18.5t-36.5 15t-19 7.5q-7 2 -5 9t7 17q3 7 11 7q4 0 7 -2q30 -14 56 -25q23 -10 44 -20t32 -16z" />
<glyph unicode="&#xe9;" horiz-adv-x="442" d="M70 -23q-9 0 -27 3.5t-37 17.5t-33 41.5t-14 76.5q0 50 22.5 107t59.5 105.5t84.5 80.5t97.5 32q10 0 21 -6t20.5 -16t15.5 -21.5t6 -21.5q0 -26 -23.5 -64.5t-56 -75.5t-67.5 -63t-59 -26q-23 0 -36.5 13.5t-21.5 29.5q-6 -15 -9 -25.5t-4.5 -19.5t-2.5 -18.5t-1 -21.5 q0 -37 13 -59.5t39 -22.5q29 0 62.5 11.5t68.5 30.5t70 43t67 50q75 59 152 135q3 4 7 3.5t6.5 -3t2 -7.5t-4.5 -10q-63 -75 -126.5 -131t-120 -93.5t-101.5 -56t-70 -18.5zM75 200q19 0 47.5 23.5t55.5 54.5t46 59.5t19 39.5q0 8 -6.5 15.5t-15.5 7.5q-20 0 -44 -14 t-49 -38t-48 -55t-40 -64q4 -11 12.5 -20t22.5 -9zM108 482q10 6 31.5 16t44.5 20q26 11 56 24q2 1 6 2q3 0 6 -0.5t6 -5.5q5 -10 7 -17t-5 -10q-4 -1 -20 -7.5t-36.5 -15t-41.5 -18t-35 -16.5q-3 -1 -6 -1q-6 0 -10 6q-4 5 -7 12t4 11z" />
<glyph unicode="&#xea;" horiz-adv-x="442" d="M70 -23q-9 0 -27 3.5t-37 17.5t-33 41.5t-14 76.5q0 50 22.5 107t59.5 105.5t84.5 80.5t97.5 32q10 0 21 -6t20.5 -16t15.5 -21.5t6 -21.5q0 -26 -23.5 -64.5t-56 -75.5t-67.5 -63t-59 -26q-23 0 -36.5 13.5t-21.5 29.5q-6 -15 -9 -25.5t-4.5 -19.5t-2.5 -18.5t-1 -21.5 q0 -37 13 -59.5t39 -22.5q29 0 62.5 11.5t68.5 30.5t70 43t67 50q75 59 152 135q3 4 7 3.5t6.5 -3t2 -7.5t-4.5 -10q-63 -75 -126.5 -131t-120 -93.5t-101.5 -56t-70 -18.5zM75 200q19 0 47.5 23.5t55.5 54.5t46 59.5t19 39.5q0 8 -6.5 15.5t-15.5 7.5q-20 0 -44 -14 t-49 -38t-48 -55t-40 -64q4 -11 12.5 -20t22.5 -9zM146 494q2 4 16.5 18.5t31.5 31t32.5 29.5t20.5 13q8 0 18.5 -8.5t10.5 -14.5q0 -3 1 -17t2.5 -31t3.5 -33.5t4 -23.5q2 -8 -3 -7.5t-12.5 4t-14 9.5t-7.5 9t-1.5 12.5t-2.5 20.5q-2 12 -4 26l-56 -56q-10 -10 -17.5 -5.5 t-11.5 6.5t-8.5 7.5t-2.5 9.5z" />
<glyph unicode="&#xeb;" horiz-adv-x="442" d="M70 -23q-9 0 -27 3.5t-37 17.5t-33 41.5t-14 76.5q0 50 22.5 107t59.5 105.5t84.5 80.5t97.5 32q10 0 21 -6t20.5 -16t15.5 -21.5t6 -21.5q0 -26 -23.5 -64.5t-56 -75.5t-67.5 -63t-59 -26q-23 0 -36.5 13.5t-21.5 29.5q-6 -15 -9 -25.5t-4.5 -19.5t-2.5 -18.5t-1 -21.5 q0 -37 13 -59.5t39 -22.5q29 0 62.5 11.5t68.5 30.5t70 43t67 50q75 59 152 135q3 4 7 3.5t6.5 -3t2 -7.5t-4.5 -10q-63 -75 -126.5 -131t-120 -93.5t-101.5 -56t-70 -18.5zM75 200q19 0 47.5 23.5t55.5 54.5t46 59.5t19 39.5q0 8 -6.5 15.5t-15.5 7.5q-20 0 -44 -14 t-49 -38t-48 -55t-40 -64q4 -11 12.5 -20t22.5 -9zM198 493q0 -14 -9 -23t-22 -9q-12 0 -21 9t-9 23q0 13 9 22t21 9q13 0 22 -9t9 -22zM269 493q0 -14 -9 -23t-22 -9q-12 0 -21 9t-9 23q0 13 9 22t21 9q13 0 22 -9t9 -22z" />
<glyph unicode="&#xec;" horiz-adv-x="277" d="M52 24q-13 0 -28.5 3t-29.5 12t-25 24.5t-14 40.5q-5 37 10 80.5t36 83.5t42 70.5t29 41.5t15 14t12 3t10 -3l23 -18q-3 -5 -13.5 -21t-25 -39.5t-30 -52.5t-28 -59t-19.5 -59t-4 -53q1 -9 6 -19t10 -10q29 0 60 23.5t65.5 59.5t73.5 79.5t84 82.5q1 2 4 3q4 2 9 -3 q4 -5 1 -10.5t-5 -8.5q-38 -51 -76.5 -99t-74 -85t-66 -59t-51.5 -22zM203 445q6 -4 3.5 -10.5t-6.5 -12.5q-5 -6 -10 -6q-3 0 -6 1q-14 7 -35.5 17t-42 18.5t-36.5 15t-19 7.5q-7 2 -5 9t7 17q3 7 11 7q4 0 7 -2q30 -14 56 -25q23 -10 44 -20t32 -16z" />
<glyph unicode="&#xed;" horiz-adv-x="277" d="M52 24q-13 0 -28.5 3t-29.5 12t-25 24.5t-14 40.5q-5 37 10 80.5t36 83.5t42 70.5t29 41.5t15 14t12 3t10 -3l23 -18q-3 -5 -13.5 -21t-25 -39.5t-30 -52.5t-28 -59t-19.5 -59t-4 -53q1 -9 6 -19t10 -10q29 0 60 23.5t65.5 59.5t73.5 79.5t84 82.5q1 2 4 3q4 2 9 -3 q4 -5 1 -10.5t-5 -8.5q-38 -51 -76.5 -99t-74 -85t-66 -59t-51.5 -22zM34 455q10 6 31.5 16t44.5 20q26 11 56 24q2 1 6 2q3 0 6 -0.5t6 -5.5q5 -10 7 -17t-5 -10q-4 -1 -20 -7.5t-36.5 -15t-41.5 -18t-35 -16.5q-3 -1 -6 -1q-6 0 -10 6q-4 5 -7 12t4 11z" />
<glyph unicode="&#xee;" horiz-adv-x="277" d="M52 24q-13 0 -28.5 3t-29.5 12t-25 24.5t-14 40.5q-5 37 10 80.5t36 83.5t42 70.5t29 41.5t15 14t12 3t10 -3l23 -18q-3 -5 -13.5 -21t-25 -39.5t-30 -52.5t-28 -59t-19.5 -59t-4 -53q1 -9 6 -19t10 -10q29 0 60 23.5t65.5 59.5t73.5 79.5t84 82.5q1 2 4 3q4 2 9 -3 q4 -5 1 -10.5t-5 -8.5q-38 -51 -76.5 -99t-74 -85t-66 -59t-51.5 -22zM38 450q2 4 16.5 18.5t31.5 31t32.5 29.5t20.5 13q8 0 18.5 -8.5t10.5 -14.5q0 -3 1 -17t2.5 -31t3.5 -33.5t4 -23.5q2 -8 -3 -7.5t-12.5 4t-14 9.5t-7.5 9t-1.5 12.5t-2.5 20.5q-2 12 -4 26l-56 -56 q-10 -10 -17.5 -5.5t-11.5 6.5t-8.5 7.5t-2.5 9.5z" />
<glyph unicode="&#xef;" horiz-adv-x="277" d="M52 24q-13 0 -28.5 3t-29.5 12t-25 24.5t-14 40.5q-5 37 10 80.5t36 83.5t42 70.5t29 41.5t15 14t12 3t10 -3l23 -18q-3 -5 -13.5 -21t-25 -39.5t-30 -52.5t-28 -59t-19.5 -59t-4 -53q1 -9 6 -19t10 -10q29 0 60 23.5t65.5 59.5t73.5 79.5t84 82.5q1 2 4 3q4 2 9 -3 q4 -5 1 -10.5t-5 -8.5q-38 -51 -76.5 -99t-74 -85t-66 -59t-51.5 -22zM103 465q0 -14 -9 -23t-22 -9q-12 0 -21 9t-9 23q0 13 9 22t21 9q13 0 22 -9t9 -22zM174 465q0 -14 -9 -23t-22 -9q-12 0 -21 9t-9 23q0 13 9 22t21 9q13 0 22 -9t9 -22z" />
<glyph unicode="&#xf0;" horiz-adv-x="357" d="M253 614q4 4 14.5 9t24.5 9.5t30 8t33 6.5q4 26 4 53t-6.5 48.5t-21 35.5t-39.5 14q-22 0 -45 -9t-45 -22t-42.5 -29t-36.5 -29t-27 -22t-15 -9q-12 0 -22 6t-6 16q4 12 25.5 33.5t53 42.5t70 36.5t78.5 15.5q66 0 99.5 -45t19.5 -130h20q16 -1 23 -6t8.5 -10t-1.5 -9.5 t-6 -4.5q-8 -1 -22 -4t-31 -8l-11 -35q-11 -29 -26 -62.5t-34 -69.5q26 -1 40 -5t19.5 -8.5t5.5 -9t-3 -7.5q-5 -5 -25.5 0.5t-50.5 2.5q-30 -56 -66.5 -115t-75 -115t-77.5 -105.5t-75 -86.5t-66.5 -58.5t-52.5 -21.5q-37 0 -50 20t-7 54t27.5 77.5t55 90t75.5 93t88 85.5 t94 67.5t92 39.5q24 44 42 81t29 64q1 2 1.5 5t2.5 6q-27 -7 -49 -12.5t-28 -6.5q-7 -1 -10.5 3.5t-4.5 10.5t0 12t3 9zM-99 -46q46 36 93 87.5t91.5 111.5t85 123.5t73.5 122.5q-47 -21 -96 -60.5t-94 -87t-82 -97.5t-59 -92.5t-27 -72t15 -35.5z" />
<glyph unicode="&#xf1;" horiz-adv-x="513" d="M-66 6q-20 0 -33 8.5t-13 15.5q0 6 9.5 27.5t24.5 53t34.5 69.5t39.5 77q48 92 108 204q5 0 10 -1t10.5 -2.5t12.5 -4.5q13 -5 13 -13.5t-5 -16.5q-30 -51 -56 -99.5t-49 -92.5q22 26 46 50.5t49.5 45t51 35t51.5 20.5q3 1 10.5 -1.5t15.5 -5.5t15 -6.5t10 -5.5 q12 -7 14 -30.5t-1.5 -54t-9.5 -64.5t-10 -62t-4.5 -46.5t8.5 -18.5q12 0 39.5 18t62 46t71 62t67.5 66q5 6 10.5 7t9 -1t3.5 -6t-4 -10q-38 -41 -76 -80t-71.5 -69t-61.5 -48t-47 -18q-25 0 -43.5 20t-18.5 43q0 6 1 18.5t3.5 30t5 37.5t5.5 40q7 47 16 103 q-18 0 -45.5 -17t-59 -45t-64.5 -64t-63 -73.5t-54.5 -74.5t-37.5 -66zM189 456q0 8 3.5 17.5t9.5 18t13 14.5t14 6t15 -4t15.5 -9.5t12.5 -11.5t5 -10v-23q8 6 15 12q6 5 12 12.5t9 16.5q3 8 8.5 7.5t11.5 -4.5t10 -9.5t4 -6.5t-4 -10t-13 -20t-22 -22.5t-31 -17.5 q-2 0 -7.5 2t-11.5 6t-11 9.5t-5 12.5q-1 14 2 25t1 13q-2 1 -10 -6t-20 -36q-1 -1 -3 -2q-4 -2 -9 1t-9.5 7.5t-4.5 11.5z" />
<glyph unicode="&#xf2;" horiz-adv-x="409" d="M21 14q-13 0 -25 7.5t-21 18.5t-14.5 23.5t-5.5 22.5q0 18 4 41t11.5 49t18 53.5t22.5 53.5q-27 44 -27 71q0 7 5 16.5t16.5 18.5t31.5 15t50 6h7q15 10 24 10l21 -18q29 -10 49.5 -28.5t34 -38.5t20 -38.5t6.5 -28.5q0 -12 -10.5 -34.5t-27.5 -48.5q29 5 69.5 19 t77.5 30q43 18 89 40q13 7 22 8t12 -2t-0.5 -8t-13.5 -10q-54 -30 -105 -55q-44 -21 -92.5 -38.5t-84.5 -19.5q-19 -25 -40.5 -49.5t-43.5 -43.5t-43 -30.5t-37 -11.5zM159 188q22 27 36 51.5t14 40.5q0 43 -23.5 62t-54.5 24q-15 -17 -33.5 -42.5t-35.5 -57.5 q18 -24 43 -46t54 -32zM31 323q5 11 11 20.5t12 18.5q-14 -5 -19.5 -13.5t-5.5 -15.5q0 -2 2 -10zM8 55q7 0 21.5 8.5t31.5 23t36.5 33.5t37.5 39q-25 11 -48 31.5t-43 43.5q-20 -39 -33 -80.5t-13 -79.5v-5q1 -5 3 -9.5t7 -4.5zM244 449q6 -4 3.5 -10.5t-6.5 -12.5 q-5 -6 -10 -6q-3 0 -6 1q-14 7 -35.5 17t-42 18.5t-36.5 15t-19 7.5q-7 2 -5 9t7 17q3 7 11 7q4 0 7 -2q30 -14 56 -25q23 -10 44 -20t32 -16z" />
<glyph unicode="&#xf3;" horiz-adv-x="409" d="M21 14q-13 0 -25 7.5t-21 18.5t-14.5 23.5t-5.5 22.5q0 18 4 41t11.5 49t18 53.5t22.5 53.5q-27 44 -27 71q0 7 5 16.5t16.5 18.5t31.5 15t50 6h7q15 10 24 10l21 -18q29 -10 49.5 -28.5t34 -38.5t20 -38.5t6.5 -28.5q0 -12 -10.5 -34.5t-27.5 -48.5q29 5 69.5 19 t77.5 30q43 18 89 40q13 7 22 8t12 -2t-0.5 -8t-13.5 -10q-54 -30 -105 -55q-44 -21 -92.5 -38.5t-84.5 -19.5q-19 -25 -40.5 -49.5t-43.5 -43.5t-43 -30.5t-37 -11.5zM159 188q22 27 36 51.5t14 40.5q0 43 -23.5 62t-54.5 24q-15 -17 -33.5 -42.5t-35.5 -57.5 q18 -24 43 -46t54 -32zM31 323q5 11 11 20.5t12 18.5q-14 -5 -19.5 -13.5t-5.5 -15.5q0 -2 2 -10zM8 55q7 0 21.5 8.5t31.5 23t36.5 33.5t37.5 39q-25 11 -48 31.5t-43 43.5q-20 -39 -33 -80.5t-13 -79.5v-5q1 -5 3 -9.5t7 -4.5zM88 476q10 6 31.5 16t44.5 20q26 11 56 24 q2 1 6 2q3 0 6 -0.5t6 -5.5q5 -10 7 -17t-5 -10q-4 -1 -20 -7.5t-36.5 -15t-41.5 -18t-35 -16.5q-3 -1 -6 -1q-6 0 -10 6q-4 5 -7 12t4 11z" />
<glyph unicode="&#xf4;" horiz-adv-x="409" d="M21 14q-13 0 -25 7.5t-21 18.5t-14.5 23.5t-5.5 22.5q0 18 4 41t11.5 49t18 53.5t22.5 53.5q-27 44 -27 71q0 7 5 16.5t16.5 18.5t31.5 15t50 6h7q15 10 24 10l21 -18q29 -10 49.5 -28.5t34 -38.5t20 -38.5t6.5 -28.5q0 -12 -10.5 -34.5t-27.5 -48.5q29 5 69.5 19 t77.5 30q43 18 89 40q13 7 22 8t12 -2t-0.5 -8t-13.5 -10q-54 -30 -105 -55q-44 -21 -92.5 -38.5t-84.5 -19.5q-19 -25 -40.5 -49.5t-43.5 -43.5t-43 -30.5t-37 -11.5zM159 188q22 27 36 51.5t14 40.5q0 43 -23.5 62t-54.5 24q-15 -17 -33.5 -42.5t-35.5 -57.5 q18 -24 43 -46t54 -32zM31 323q5 11 11 20.5t12 18.5q-14 -5 -19.5 -13.5t-5.5 -15.5q0 -2 2 -10zM8 55q7 0 21.5 8.5t31.5 23t36.5 33.5t37.5 39q-25 11 -48 31.5t-43 43.5q-20 -39 -33 -80.5t-13 -79.5v-5q1 -5 3 -9.5t7 -4.5zM92 469q2 4 16.5 18.5t31.5 31t32.5 29.5 t20.5 13q8 0 18.5 -8.5t10.5 -14.5q0 -3 1 -17t2.5 -31t3.5 -33.5t4 -23.5q2 -8 -3 -7.5t-12.5 4t-14 9.5t-7.5 9t-1.5 12.5t-2.5 20.5q-2 12 -4 26l-56 -56q-10 -10 -17.5 -5.5t-11.5 6.5t-8.5 7.5t-2.5 9.5z" />
<glyph unicode="&#xf5;" horiz-adv-x="409" d="M21 14q-13 0 -25 7.5t-21 18.5t-14.5 23.5t-5.5 22.5q0 18 4 41t11.5 49t18 53.5t22.5 53.5q-27 44 -27 71q0 7 5 16.5t16.5 18.5t31.5 15t50 6h7q15 10 24 10l21 -18q29 -10 49.5 -28.5t34 -38.5t20 -38.5t6.5 -28.5q0 -12 -10.5 -34.5t-27.5 -48.5q29 5 69.5 19 t77.5 30q43 18 89 40q13 7 22 8t12 -2t-0.5 -8t-13.5 -10q-54 -30 -105 -55q-44 -21 -92.5 -38.5t-84.5 -19.5q-19 -25 -40.5 -49.5t-43.5 -43.5t-43 -30.5t-37 -11.5zM159 188q22 27 36 51.5t14 40.5q0 43 -23.5 62t-54.5 24q-15 -17 -33.5 -42.5t-35.5 -57.5 q18 -24 43 -46t54 -32zM31 323q5 11 11 20.5t12 18.5q-14 -5 -19.5 -13.5t-5.5 -15.5q0 -2 2 -10zM8 55q7 0 21.5 8.5t31.5 23t36.5 33.5t37.5 39q-25 11 -48 31.5t-43 43.5q-20 -39 -33 -80.5t-13 -79.5v-5q1 -5 3 -9.5t7 -4.5zM104 472q0 8 3.5 17.5t9.5 18t13 14.5t14 6 t15 -4t15.5 -9.5t12.5 -11.5t5 -10v-23q8 6 15 12q6 5 12 12.5t9 16.5q3 8 8.5 7.5t11.5 -4.5t10 -9.5t4 -6.5t-4 -10t-13 -20t-22 -22.5t-31 -17.5q-2 0 -7.5 2t-11.5 6t-11 9.5t-5 12.5q-1 14 2 25t1 13q-2 1 -10 -6t-20 -36q-1 -1 -3 -2q-4 -2 -9 1t-9.5 7.5t-4.5 11.5z " />
<glyph unicode="&#xf6;" horiz-adv-x="409" d="M21 14q-13 0 -25 7.5t-21 18.5t-14.5 23.5t-5.5 22.5q0 18 4 41t11.5 49t18 53.5t22.5 53.5q-27 44 -27 71q0 7 5 16.5t16.5 18.5t31.5 15t50 6h7q15 10 24 10l21 -18q29 -10 49.5 -28.5t34 -38.5t20 -38.5t6.5 -28.5q0 -12 -10.5 -34.5t-27.5 -48.5q29 5 69.5 19 t77.5 30q43 18 89 40q13 7 22 8t12 -2t-0.5 -8t-13.5 -10q-54 -30 -105 -55q-44 -21 -92.5 -38.5t-84.5 -19.5q-19 -25 -40.5 -49.5t-43.5 -43.5t-43 -30.5t-37 -11.5zM159 188q22 27 36 51.5t14 40.5q0 43 -23.5 62t-54.5 24q-15 -17 -33.5 -42.5t-35.5 -57.5 q18 -24 43 -46t54 -32zM31 323q5 11 11 20.5t12 18.5q-14 -5 -19.5 -13.5t-5.5 -15.5q0 -2 2 -10zM8 55q7 0 21.5 8.5t31.5 23t36.5 33.5t37.5 39q-25 11 -48 31.5t-43 43.5q-20 -39 -33 -80.5t-13 -79.5v-5q1 -5 3 -9.5t7 -4.5zM154 481q0 -14 -9 -23t-22 -9q-12 0 -21 9 t-9 23q0 13 9 22t21 9q13 0 22 -9t9 -22zM225 481q0 -14 -9 -23t-22 -9q-12 0 -21 9t-9 23q0 13 9 22t21 9q13 0 22 -9t9 -22z" />
<glyph unicode="&#xf7;" horiz-adv-x="306" d="M149 398q13 0 21.5 -10.5t8.5 -25.5q0 -14 -8.5 -24.5t-21.5 -10.5t-21.5 10.5t-8.5 24.5q0 15 8.5 25.5t21.5 10.5zM149 172q13 0 21.5 -10.5t8.5 -25.5q0 -14 -8.5 -24.5t-21.5 -10.5t-21.5 10.5t-8.5 24.5q0 15 8.5 25.5t21.5 10.5zM269 270q4 -4 8 -9q3 -5 5.5 -10.5 t2.5 -10.5q0 -11 -10.5 -9t-16.5 3q-3 0 -27.5 1.5t-57.5 1.5t-69 -1t-62 -5q-2 1 -5 3q-5 4 -11 12t-8.5 13.5t0.5 5.5q31 4 71 6q34 2 80 2t100 -3z" />
<glyph unicode="&#xf8;" horiz-adv-x="409" d="M21 14q-13 0 -25 7.5t-21 18.5t-14.5 23.5t-5.5 22.5q0 18 4 41t11.5 49t18 53.5t22.5 53.5q-27 44 -27 71q0 7 5 16.5t16.5 18.5t31.5 15t50 6h7q15 10 24 10l21 -18q29 -10 49.5 -28.5t34 -38.5t20 -38.5t6.5 -28.5q0 -12 -10.5 -34.5t-27.5 -48.5q29 5 69.5 19 t77.5 30q43 18 89 40q13 7 22 8t12 -2t-0.5 -8t-13.5 -10q-54 -30 -105 -55q-44 -21 -92.5 -38.5t-84.5 -19.5q-19 -25 -40.5 -49.5t-43.5 -43.5t-43 -30.5t-37 -11.5zM159 188q22 27 36 51.5t14 40.5q0 43 -23.5 62t-54.5 24q-15 -17 -33.5 -42.5t-35.5 -57.5 q18 -24 43 -46t54 -32zM31 323q5 11 11 20.5t12 18.5q-14 -5 -19.5 -13.5t-5.5 -15.5q0 -2 2 -10zM8 55q7 0 21.5 8.5t31.5 23t36.5 33.5t37.5 39q-25 11 -48 31.5t-43 43.5q-20 -39 -33 -80.5t-13 -79.5v-5q1 -5 3 -9.5t7 -4.5zM281 560q20 -9 26.5 -16.5t8.5 -12.5 q1 -6 -3 -11q-25 -32 -60 -89.5t-73.5 -126t-76.5 -141.5t-69.5 -134.5t-52.5 -105t-26 -54.5q-7 -17 -10 -33t-5.5 -28.5t-6 -20.5t-12.5 -8t-13.5 4t-7 9t-3 10.5t-0.5 8.5q0 30 16.5 78t43.5 106.5t61.5 122.5t70.5 127q84 147 192 315z" />
<glyph unicode="&#xf9;" horiz-adv-x="455" d="M296 11q-10 0 -20.5 4.5t-19.5 16t-14.5 31t-5.5 49.5q0 33 6 64.5t15 58.5q-27 -34 -56 -67.5t-58 -60.5t-57 -43.5t-52 -16.5q-16 0 -29.5 6.5t-23 17t-14.5 23t-5 24.5q0 52 20 99.5t44 84.5q28 43 65 80q4 -3 9 -6q4 -2 9.5 -5t11.5 -6q12 -5 14.5 -11t-0.5 -9 q-29 -28 -52 -60.5t-38.5 -65t-24 -62.5t-8.5 -53q0 -12 5 -24q24 0 51 20t61.5 56t78 86t100.5 110l33 -12q5 -2 8 -5q6 -6 1 -13q-3 -5 -13 -28.5t-21 -57t-19.5 -73.5t-8.5 -78q0 -20 3 -34t6 -23t3.5 -13t-4.5 -4zM289 427q6 -4 3.5 -10.5t-6.5 -12.5q-5 -6 -10 -6 q-3 0 -6 1q-14 7 -35.5 17t-42 18.5t-36.5 15t-19 7.5q-7 2 -5 9t7 17q3 7 11 7q4 0 7 -2q30 -14 56 -25q23 -10 44 -20t32 -16z" />
<glyph unicode="&#xfa;" horiz-adv-x="455" d="M296 11q-10 0 -20.5 4.5t-19.5 16t-14.5 31t-5.5 49.5q0 33 6 64.5t15 58.5q-27 -34 -56 -67.5t-58 -60.5t-57 -43.5t-52 -16.5q-16 0 -29.5 6.5t-23 17t-14.5 23t-5 24.5q0 52 20 99.5t44 84.5q28 43 65 80q4 -3 9 -6q4 -2 9.5 -5t11.5 -6q12 -5 14.5 -11t-0.5 -9 q-29 -28 -52 -60.5t-38.5 -65t-24 -62.5t-8.5 -53q0 -12 5 -24q24 0 51 20t61.5 56t78 86t100.5 110l33 -12q5 -2 8 -5q6 -6 1 -13q-3 -5 -13 -28.5t-21 -57t-19.5 -73.5t-8.5 -78q0 -20 3 -34t6 -23t3.5 -13t-4.5 -4zM160 417q10 6 31.5 16t44.5 20q26 11 56 24q2 1 6 2 q3 0 6 -0.5t6 -5.5q5 -10 7 -17t-5 -10q-4 -1 -20 -7.5t-36.5 -15t-41.5 -18t-35 -16.5q-3 -1 -6 -1q-6 0 -10 6q-4 5 -7 12t4 11z" />
<glyph unicode="&#xfb;" horiz-adv-x="455" d="M296 11q-10 0 -20.5 4.5t-19.5 16t-14.5 31t-5.5 49.5q0 33 6 64.5t15 58.5q-27 -34 -56 -67.5t-58 -60.5t-57 -43.5t-52 -16.5q-16 0 -29.5 6.5t-23 17t-14.5 23t-5 24.5q0 52 20 99.5t44 84.5q28 43 65 80q4 -3 9 -6q4 -2 9.5 -5t11.5 -6q12 -5 14.5 -11t-0.5 -9 q-29 -28 -52 -60.5t-38.5 -65t-24 -62.5t-8.5 -53q0 -12 5 -24q24 0 51 20t61.5 56t78 86t100.5 110l33 -12q5 -2 8 -5q6 -6 1 -13q-3 -5 -13 -28.5t-21 -57t-19.5 -73.5t-8.5 -78q0 -20 3 -34t6 -23t3.5 -13t-4.5 -4zM148 419q2 4 16.5 18.5t31.5 31t32.5 29.5t20.5 13 q8 0 18.5 -8.5t10.5 -14.5q0 -3 1 -17t2.5 -31t3.5 -33.5t4 -23.5q2 -8 -3 -7.5t-12.5 4t-14 9.5t-7.5 9t-1.5 12.5t-2.5 20.5q-2 12 -4 26l-56 -56q-10 -10 -17.5 -5.5t-11.5 6.5t-8.5 7.5t-2.5 9.5z" />
<glyph unicode="&#xfc;" horiz-adv-x="455" d="M296 11q-10 0 -20.5 4.5t-19.5 16t-14.5 31t-5.5 49.5q0 33 6 64.5t15 58.5q-27 -34 -56 -67.5t-58 -60.5t-57 -43.5t-52 -16.5q-16 0 -29.5 6.5t-23 17t-14.5 23t-5 24.5q0 52 20 99.5t44 84.5q28 43 65 80q4 -3 9 -6q4 -2 9.5 -5t11.5 -6q12 -5 14.5 -11t-0.5 -9 q-29 -28 -52 -60.5t-38.5 -65t-24 -62.5t-8.5 -53q0 -12 5 -24q24 0 51 20t61.5 56t78 86t100.5 110l33 -12q5 -2 8 -5q6 -6 1 -13q-3 -5 -13 -28.5t-21 -57t-19.5 -73.5t-8.5 -78q0 -20 3 -34t6 -23t3.5 -13t-4.5 -4zM225 419q0 -14 -9 -23t-22 -9q-12 0 -21 9t-9 23 q0 13 9 22t21 9q13 0 22 -9t9 -22zM296 419q0 -14 -9 -23t-22 -9q-12 0 -21 9t-9 23q0 13 9 22t21 9q13 0 22 -9t9 -22z" />
<glyph unicode="&#xfd;" horiz-adv-x="498" d="M-120 -499q-4 0 -10 2.5t-12 7t-10.5 10t-4.5 11.5q0 54 28.5 105t72 96.5t95.5 83.5t100 67q50 87 90.5 172.5t71.5 158.5q-32 -37 -67.5 -74t-68.5 -66.5t-60 -48t-42 -18.5q-33 0 -52 14t-28 31t-11.5 32.5t-2.5 18.5t4 33.5t19.5 77.5t46.5 105.5t86 117.5 q10 -5 18 -10q7 -5 12.5 -10.5t3.5 -12.5q-3 -6 -14.5 -22t-27 -39.5t-33.5 -52.5t-32.5 -61t-24.5 -65t-10 -64v-14t1.5 -17t4.5 -14t10 -6q15 0 47 19.5t76.5 61.5t99.5 108.5t116 159.5q2 4 5 6q2 2 5.5 2t8.5 -5q9 -8 16.5 -16.5t2.5 -27.5q-2 -5 -6.5 -13t-12.5 -19 q-12 -41 -31 -88.5t-43 -100t-52.5 -107t-58.5 -108.5q39 21 59 31q10 5 17.5 4t10 -4.5t0 -8.5t-11.5 -9q-22 -10 -47.5 -24t-51.5 -31q-44 -76 -89.5 -144.5t-86 -120.5t-73.5 -83t-53 -31zM-97 -431q55 51 105 116.5t95 138.5q-39 -31 -75.5 -65t-64 -67.5t-44 -65 t-16.5 -57.5zM231 452q10 6 31.5 16t44.5 20q26 11 56 24q2 1 6 2q3 0 6 -0.5t6 -5.5q5 -10 7 -17t-5 -10q-4 -1 -20 -7.5t-36.5 -15t-41.5 -18t-35 -16.5q-3 -1 -6 -1q-6 0 -10 6q-4 5 -7 12t4 11z" />
<glyph unicode="&#xfe;" horiz-adv-x="507" d="M457 233q-26 -5 -55.5 -12t-60.5 -15q-17 -32 -41 -63.5t-52.5 -56.5t-60 -40.5t-62.5 -15.5q-34 0 -54 6.5t-31 15.5t-14.5 18t-3.5 14q0 21 22.5 41t60 37.5t84.5 32.5t97 26q16 24 25 47.5t9 43.5q0 6 -1.5 15t-5 17.5t-9 14t-14.5 5.5q-40 0 -84.5 -24.5t-86 -60 t-75 -76t-51.5 -73.5q-21 -50 -39 -98.5t-31 -93.5t-20.5 -85t-7.5 -72q-2 -19 -9 -25t-17 -6q-11 0 -21 3.5t-10 11.5q0 34 15 93.5t41 134.5t61.5 160.5t77.5 172.5t88 170t93 153q5 6 11 9q5 2 11.5 1.5t14.5 -8.5q15 -16 10 -27.5t-11 -18.5q-12 -14 -32 -43.5t-44 -70 t-51 -90.5t-54 -105q20 19 43 38t48.5 33.5t53 23.5t56.5 9q25 0 43.5 -11.5t30.5 -27.5t18 -33.5t6 -29.5q0 -27 -14 -64q32 6 60.5 9t52.5 5q5 0 8.5 -1t3.5 -3.5t-5 -5t-17 -5.5zM98 75q17 0 37.5 8.5t41.5 23t41.5 34t38.5 41.5q-37 -12 -70 -24.5t-57.5 -25.5 t-39 -25.5t-14.5 -24.5q0 -7 22 -7z" />
<glyph unicode="&#xff;" horiz-adv-x="498" d="M-120 -499q-4 0 -10 2.5t-12 7t-10.5 10t-4.5 11.5q0 54 28.5 105t72 96.5t95.5 83.5t100 67q50 87 90.5 172.5t71.5 158.5q-32 -37 -67.5 -74t-68.5 -66.5t-60 -48t-42 -18.5q-33 0 -52 14t-28 31t-11.5 32.5t-2.5 18.5t4 33.5t19.5 77.5t46.5 105.5t86 117.5 q10 -5 18 -10q7 -5 12.5 -10.5t3.5 -12.5q-3 -6 -14.5 -22t-27 -39.5t-33.5 -52.5t-32.5 -61t-24.5 -65t-10 -64v-14t1.5 -17t4.5 -14t10 -6q15 0 47 19.5t76.5 61.5t99.5 108.5t116 159.5q2 4 5 6q2 2 5.5 2t8.5 -5q9 -8 16.5 -16.5t2.5 -27.5q-2 -5 -6.5 -13t-12.5 -19 q-12 -41 -31 -88.5t-43 -100t-52.5 -107t-58.5 -108.5q39 21 59 31q10 5 17.5 4t10 -4.5t0 -8.5t-11.5 -9q-22 -10 -47.5 -24t-51.5 -31q-44 -76 -89.5 -144.5t-86 -120.5t-73.5 -83t-53 -31zM-97 -431q55 51 105 116.5t95 138.5q-39 -31 -75.5 -65t-64 -67.5t-44 -65 t-16.5 -57.5zM269 462q0 -14 -9 -23t-22 -9q-12 0 -21 9t-9 23q0 13 9 22t21 9q13 0 22 -9t9 -22zM340 462q0 -14 -9 -23t-22 -9q-12 0 -21 9t-9 23q0 13 9 22t21 9q13 0 22 -9t9 -22z" />
<glyph unicode="&#x131;" horiz-adv-x="277" d="M52 24q-13 0 -28.5 3t-29.5 12t-25 24.5t-14 40.5q-5 37 10 80.5t36 83.5t42 70.5t29 41.5t15 14t12 3t10 -3l23 -18q-3 -5 -13.5 -21t-25 -39.5t-30 -52.5t-28 -59t-19.5 -59t-4 -53q1 -9 6 -19t10 -10q29 0 60 23.5t65.5 59.5t73.5 79.5t84 82.5q1 2 4 3q4 2 9 -3 q4 -5 1 -10.5t-5 -8.5q-38 -51 -76.5 -99t-74 -85t-66 -59t-51.5 -22z" />
<glyph unicode="&#x153;" horiz-adv-x="650" d="M21 14q-13 0 -25 7.5t-21 18.5t-14.5 23.5t-5.5 22.5q0 18 4 41t11.5 49t18 53.5t22.5 53.5q-27 44 -27 71q0 7 5 16.5t16.5 18.5t31.5 15t50 6h7q15 10 24 10l21 -18q29 -10 50.5 -28.5t35.5 -39t20 -39t4 -27.5q-3 -12 -7 -24t-11 -26t-18 -31t-28 -38 q-19 -25 -40.5 -49.5t-43.5 -43.5t-43 -30.5t-37 -11.5zM159 188q22 27 36 51.5t14 40.5q0 43 -23.5 62t-54.5 24q-15 -17 -33.5 -42.5t-35.5 -57.5q18 -24 43 -46t54 -32zM31 323q5 11 11 20.5t12 18.5q-14 -5 -19.5 -13.5t-5.5 -15.5q0 -2 2 -10zM8 55q7 0 21.5 8.5 t31.5 23t36.5 33.5t37.5 39q-25 11 -48 31.5t-43 43.5q-20 -39 -33 -80.5t-13 -79.5v-5q1 -5 3 -9.5t7 -4.5zM278 -23q-9 0 -27 3.5t-37 17.5t-33 41.5t-14 76.5q0 50 22.5 107t59.5 105.5t84.5 80.5t97.5 32q10 0 21 -6t20.5 -16t15.5 -21.5t6 -21.5q0 -26 -23.5 -64.5 t-56 -75.5t-67.5 -63t-59 -26q-23 0 -36.5 13.5t-21.5 29.5q-6 -15 -9 -25.5t-4.5 -19.5t-2.5 -18.5t-1 -21.5q0 -37 13 -59.5t39 -22.5q29 0 62.5 11.5t68.5 30.5t70 43t67 50q75 59 152 135q3 4 7 3.5t6.5 -3t2 -7.5t-4.5 -10q-63 -75 -126.5 -131t-120 -93.5t-101.5 -56 t-70 -18.5zM283 200q19 0 47.5 23.5t55.5 54.5t46 59.5t19 39.5q0 8 -6.5 15.5t-15.5 7.5q-20 0 -44 -14t-49 -38t-48 -55t-40 -64q4 -11 12.5 -20t22.5 -9z" />
<glyph unicode="&#x178;" horiz-adv-x="506" d="M230 -85q-24 -5 -36.5 3t-14.5 14q0 44 31.5 126t83 183.5t117.5 211.5t134 211q-87 -101 -146.5 -190.5t-105 -157.5t-84 -108.5t-82.5 -43.5q-52 0 -80.5 23.5t-37.5 64t-2 94t25 113t44.5 122t55.5 120.5t58.5 108.5t54.5 85.5q10 11 20.5 16.5t19.5 7.5t16 2h9 t7.5 -1.5t11.5 -4.5t10.5 -6.5t4.5 -7.5q0 -5 -6 -7.5t-14 -5.5t-17 -8t-16 -14q-5 -6 -21 -29t-38 -60t-48 -87t-50.5 -110.5t-45 -130.5t-31.5 -147q0 -14 0.5 -30t2.5 -30q5 -16 12 -28.5t15 -22.5q8 -5 19 -5q25 0 55.5 31.5t70 85t88.5 125.5t111.5 153.5t138.5 167 t169 167.5q8 1 17 0q8 -1 16 -4.5t16 -12.5q-57 -59 -118 -141t-120 -173.5t-112 -185t-95 -175.5t-69.5 -146.5t-34.5 -96.5q-4 -17 -6 -35.5t-3 -30.5zM49 -164q-7 6 -11 12q-3 5 -4 11t7 11q7 5 34 15t67.5 17.5t92 8.5t109.5 -13q1 -1 -1 -3q-4 -4 -18 -5q-9 -1 -40 -2 t-72 -5.5t-85 -15.5t-79 -31zM501 888q0 -14 -9 -23t-22 -9q-12 0 -21 9t-9 23q0 13 9 22t21 9q13 0 22 -9t9 -22zM572 888q0 -14 -9 -23t-22 -9q-12 0 -21 9t-9 23q0 13 9 22t21 9q13 0 22 -9t9 -22z" />
<glyph unicode="&#x2c6;" horiz-adv-x="157" d="M8 549q2 4 16.5 18.5t31.5 31t32.5 29.5t20.5 13q8 0 18.5 -8.5t10.5 -14.5q0 -3 1 -17t2.5 -31t3.5 -33.5t4 -23.5q2 -8 -3 -7.5t-12.5 4t-14 9.5t-7.5 9t-1.5 12.5t-2.5 20.5q-2 12 -4 26l-56 -56q-10 -10 -17.5 -5.5t-11.5 6.5t-8.5 7.5t-2.5 9.5z" />
<glyph unicode="&#x2da;" horiz-adv-x="150" d="M95 625q17 0 31.5 -16.5t14.5 -34.5q0 -9 -7.5 -18t-19.5 -17t-26 -13t-27 -5q-25 0 -38.5 16.5t-13.5 30.5q0 7 5.5 15t14.5 14.5t20.5 11t23.5 4.5q7 0 11 6t11 6zM99 570q14 16 10 29q-1 -1 -3 -1t-4 -0.5t-5 1.5q2 -2 3 -5q2 -7 -3 -8q-3 -1 -11.5 -3.5t-18 -6.5 t-17 -10t-8.5 -13h16q11 0 22 4t19 13z" />
<glyph unicode="&#x2dc;" horiz-adv-x="176" d="M9 567q0 8 3.5 17.5t9.5 18t13 14.5t14 6t15 -4t15.5 -9.5t12.5 -11.5t5 -10v-23q8 6 15 12q6 5 12 12.5t9 16.5q3 8 8.5 7.5t11.5 -4.5t10 -9.5t4 -6.5t-4 -10t-13 -20t-22 -22.5t-31 -17.5q-2 0 -7.5 2t-11.5 6t-11 9.5t-5 12.5q-1 14 2 25t1 13q-2 1 -10 -6t-20 -36 q-1 -1 -3 -2q-4 -2 -9 1t-9.5 7.5t-4.5 11.5z" />
<glyph unicode="&#x2000;" horiz-adv-x="519" />
<glyph unicode="&#x2001;" horiz-adv-x="1039" />
<glyph unicode="&#x2002;" horiz-adv-x="519" />
<glyph unicode="&#x2003;" horiz-adv-x="1039" />
<glyph unicode="&#x2004;" horiz-adv-x="346" />
<glyph unicode="&#x2005;" horiz-adv-x="259" />
<glyph unicode="&#x2006;" horiz-adv-x="173" />
<glyph unicode="&#x2007;" horiz-adv-x="173" />
<glyph unicode="&#x2008;" horiz-adv-x="129" />
<glyph unicode="&#x2009;" horiz-adv-x="207" />
<glyph unicode="&#x200a;" horiz-adv-x="57" />
<glyph unicode="&#x2010;" horiz-adv-x="318" d="M280 385q4 -5 8 -9q3 -4 5.5 -9.5t2.5 -10.5q0 -11 -10 -9t-17 3q-3 0 -27.5 1t-57.5 1.5t-68.5 -0.5t-62.5 -5q-2 1 -5 3q-7 4 -11 11q-13 20 -8 20q31 4 71 6q34 2 80 2t100 -4z" />
<glyph unicode="&#x2011;" horiz-adv-x="318" d="M280 385q4 -5 8 -9q3 -4 5.5 -9.5t2.5 -10.5q0 -11 -10 -9t-17 3q-3 0 -27.5 1t-57.5 1.5t-68.5 -0.5t-62.5 -5q-2 1 -5 3q-7 4 -11 11q-13 20 -8 20q31 4 71 6q34 2 80 2t100 -4z" />
<glyph unicode="&#x2012;" horiz-adv-x="318" d="M280 385q4 -5 8 -9q3 -4 5.5 -9.5t2.5 -10.5q0 -11 -10 -9t-17 3q-3 0 -27.5 1t-57.5 1.5t-68.5 -0.5t-62.5 -5q-2 1 -5 3q-7 4 -11 11q-13 20 -8 20q31 4 71 6q34 2 80 2t100 -4z" />
<glyph unicode="&#x2013;" horiz-adv-x="549" d="M497 385q8 -5 15 -9q6 -4 10.5 -9.5t4.5 -10.5q0 -11 -18.5 -9t-31.5 3q-6 0 -51.5 1t-107 1.5t-127.5 -0.5t-117 -5l-9 3q-13 4 -21 11q-24 20 -14 20q57 4 132 6q63 2 149 2t186 -4z" />
<glyph unicode="&#x2014;" horiz-adv-x="1049" d="M967 385q15 -5 30 -9q11 -4 20.5 -9.5t9.5 -10.5q0 -11 -37.5 -9t-63.5 3q-11 0 -102 1t-214 1.5t-255.5 -0.5t-232.5 -5q-8 1 -19 3q-26 4 -41 11q-48 20 -30 20q116 4 265 6q126 2 297.5 2t372.5 -4z" />
<glyph unicode="&#x2018;" horiz-adv-x="81" d="M45 556q-13 0 -20.5 4.5t-11 11t-4.5 13.5t-1 13q0 14 11 28t22 17q5 2 9.5 1t7.5 -3q4 -2 7 -4q-5 -2 -9 -6t-6 -8l-5 -10q13 0 19.5 -9t6 -19.5t-7 -19.5t-18.5 -9z" />
<glyph unicode="&#x2019;" horiz-adv-x="81" d="M36 644q13 0 20.5 -4.5t11 -11t4.5 -13.5t1 -13q0 -14 -11 -28t-22 -17q-10 -3 -17 1q-4 2 -7 5q10 3 15 13q3 4 5 11q-14 0 -20 9t-5.5 19.5t7 19.5t18.5 9z" />
<glyph unicode="&#x201a;" horiz-adv-x="81" d="M36 63q13 0 20.5 -4.5t11 -11t4.5 -13.5t1 -13q0 -14 -11 -28t-22 -17q-10 -3 -17 1q-4 2 -7 5q10 3 15 13q3 4 5 11q-14 0 -20 9t-5.5 19.5t7 19.5t18.5 9z" />
<glyph unicode="&#x201c;" horiz-adv-x="161" d="M45 556q-13 0 -20.5 4.5t-11 11t-4.5 13.5t-1 13q0 14 11 28t22 17q5 2 9.5 1t7.5 -3q4 -2 7 -4q-5 -2 -9 -6t-6 -8l-5 -10q13 0 19.5 -9t6 -19.5t-7 -19.5t-18.5 -9zM124 555q-13 0 -20.5 4.5t-11 11t-4.5 13.5t-1 13q0 14 11 28t22 17q5 2 9.5 1t7.5 -3q4 -2 7 -4 q-5 -2 -9 -6t-6 -8l-5 -10q13 0 19.5 -9t6 -19.5t-7 -19.5t-18.5 -9z" />
<glyph unicode="&#x201d;" horiz-adv-x="161" d="M36 646q13 0 20.5 -4.5t11 -11t4.5 -13.5t1 -13q0 -14 -11 -28t-22 -17q-10 -3 -17 1q-4 2 -7 5q10 3 15 13q3 4 5 11q-14 0 -20 9t-5.5 19.5t7 19.5t18.5 9zM115 645q13 0 20.5 -4.5t11 -11t4.5 -13.5t1 -13q0 -14 -11 -28t-22 -17q-10 -3 -17 1q-4 2 -7 5q10 3 15 13 q3 4 5 11q-14 0 -20 9t-5.5 19.5t7 19.5t18.5 9z" />
<glyph unicode="&#x201e;" horiz-adv-x="161" d="M36 63q13 0 20.5 -4.5t11 -11t4.5 -13.5t1 -13q0 -14 -11 -28t-22 -17q-10 -3 -17 1q-4 2 -7 5q10 3 15 13q3 4 5 11q-14 0 -20 9t-5.5 19.5t7 19.5t18.5 9zM115 62q13 0 20.5 -4.5t11 -11t4.5 -13.5t1 -13q0 -14 -11 -28t-22 -17q-10 -3 -17 1q-4 2 -7 5q10 3 15 13 q3 4 5 11q-14 0 -20 9t-5.5 19.5t7 19.5t18.5 9z" />
<glyph unicode="&#x2022;" horiz-adv-x="176" d="M89 335q30 0 50.5 -25t20.5 -61q0 -34 -20.5 -59t-50.5 -25q-31 0 -51.5 25t-20.5 59q0 36 20.5 61t51.5 25z" />
<glyph unicode="&#x2026;" horiz-adv-x="326" d="M53 77q13 0 21.5 -10.5t8.5 -25.5q0 -14 -8.5 -24.5t-21.5 -10.5t-21.5 10.5t-8.5 24.5q0 15 8.5 25.5t21.5 10.5zM161 77q13 0 21.5 -10.5t8.5 -25.5q0 -14 -8.5 -24.5t-21.5 -10.5t-21.5 10.5t-8.5 24.5q0 15 8.5 25.5t21.5 10.5zM270 77q13 0 21.5 -10.5t8.5 -25.5 q0 -14 -8.5 -24.5t-21.5 -10.5t-21.5 10.5t-8.5 24.5q0 15 8.5 25.5t21.5 10.5z" />
<glyph unicode="&#x202f;" horiz-adv-x="207" />
<glyph unicode="&#x2039;" horiz-adv-x="449" d="M392 533q28 -11 28.5 -26.5t-13.5 -25.5q-4 -3 -20 -17t-39.5 -35t-52.5 -46.5t-59 -52.5q-70 -62 -156 -141q62 -53 112 -97q21 -19 42.5 -37.5t39 -34t29.5 -26.5t16 -15q7 -8 6 -13t-5.5 -8t-10.5 -3t-8 3q-2 2 -15.5 14t-34 30t-45.5 40t-49.5 43t-45.5 38.5 t-34 28.5q-20 15 -31 26t-16 18q-6 8 -7 13q9 6 29 23t48 41t60 52.5t65 57.5q76 68 167 150z" />
<glyph unicode="&#x203a;" horiz-adv-x="449" d="M54 -41q-14 6 -21 13t-8 14t3 13.5t12 11.5q3 3 19 16.5t40 34.5t53 47t59 53q70 62 156 141q-62 53 -112 97q-21 19 -42.5 37.5t-39 34t-30 26.5t-15.5 15q-8 8 -7 13t5.5 8t10.5 3t8 -3q2 -2 15.5 -14t34.5 -30t46 -40t49.5 -43l45.5 -39t34 -28q19 -16 30 -26.5 t16 -17.5q6 -8 7 -13q-9 -6 -29.5 -23t-48 -41t-60 -52.5t-64.5 -57.5q-77 -68 -167 -150z" />
<glyph unicode="&#x205f;" horiz-adv-x="259" />
<glyph unicode="&#x20ac;" horiz-adv-x="616" d="M605 783q0 -7 -2 -25.5t-15.5 -52t-43.5 -84t-85 -120.5q-10 1 -17 3q-6 2 -11 4.5t-5 7.5q0 3 11 18t27 37.5t35.5 50t35.5 55t27 53.5t11 46q0 8 -1 15q-1 6 -3 11t-7 5q-36 0 -80 -27.5t-90 -74t-92 -107.5t-87 -129q25 -1 52.5 -2t53 -3t47 -4t35.5 -4q3 -1 7 -4 q8 -6 8 -18q0 -14 -3.5 -21.5t-16.5 -5.5q-5 1 -26 3t-51 4.5t-65 5t-67 4.5q-31 -55 -55.5 -110t-41.5 -107q21 -1 44.5 -2.5t45.5 -3t41 -3.5t31 -5q3 -1 6 -4q6 -6 6 -18q0 -14 -2.5 -21.5t-12.5 -5.5q-4 1 -21.5 3t-42.5 4.5t-53.5 5t-54.5 4.5q-15 -57 -15 -105 q0 -15 6.5 -31t17 -29t24.5 -21.5t30 -8.5q15 0 32.5 6.5t32.5 15t26 16.5t14 11q6 5 11.5 5.5t7.5 -5.5q0 -3 -7.5 -15t-23.5 -25.5t-38.5 -24t-52.5 -10.5t-52.5 14t-37.5 34.5t-22.5 44t-7.5 43.5q0 41 9 86q-5 0 -7 -1q-7 0 -11 5t-5.5 14.5t3.5 29.5h9q5 0 10 -0.5 t13 -0.5q14 53 37.5 107.5t53.5 108.5q-4 -1 -11 -1q-9 0 -14 5t-6 14.5t5 29.5l52 -2q44 74 95 140.5t101 117t95.5 80t78.5 29.5q21 0 35 -6t23 -14.5t13 -18t4 -16.5z" />
<glyph unicode="&#x2212;" horiz-adv-x="286" d="M261 364q4 -4 8 -9q3 -5 5.5 -10.5t2.5 -10.5q0 -11 -10.5 -9t-16.5 3q-3 0 -27.5 1.5t-57.5 1.5t-69 -1t-62 -5q-2 1 -5 3q-5 4 -11 12t-8.5 13.5t0.5 5.5q31 4 71 6q34 2 80 2t100 -3z" />
<glyph unicode="&#x25fc;" horiz-adv-x="405" d="M0 405h405v-405h-405v405z" />
</font>
</defs>
</svg>
