<?xml version="1.0" standalone="no"?>
<!DOCTYPE svg PUBLIC "-//W3C//DTD SVG 1.1//EN" "http://www.w3.org/Graphics/SVG/1.1/DTD/svg11.dtd">
<svg xmlns="http://www.w3.org/2000/svg">
<defs >
<font id="SourceSansPro" horiz-adv-x="405" ><font-face
    font-family="Source Sans Pro ExtraLight"
    units-per-em="1000"
    panose-1="2 11 3 3 3 4 3 9 2 4"
    ascent="984"
    descent="-273"
    alphabetic="0" />
<glyph unicode=" " glyph-name="space" horiz-adv-x="188" />
<glyph unicode="!" glyph-name="exclam" horiz-adv-x="242" d="M176 608L188 672H216L204 608L116 172H92L176 608ZM70 -12Q56 -12 49 -3T42 18Q42 35 54 49T84 64Q98 64 104 55T110 32Q110 15 99 2T70 -12Z" />
<glyph unicode="&quot;" glyph-name="quotedbl" horiz-adv-x="324" d="M158 608L170 672H198L186 608L156 478H134L158 608ZM280 608L292 672H320L308 608L278 478H256L280 608Z" />
<glyph unicode="#" glyph-name="numbersign" horiz-adv-x="458" d="M110 218H28L36 246H118L172 424H88L96 452H182L244 650H272L210 452H356L418 650H446L384 452H466L458 424H376L322 246H406L398 218H312L244 0H216L284 218H138L70 0H42L110 218ZM294 246L348
424H200L146 246H294Z" />
<glyph unicode="$" glyph-name="dollar" horiz-adv-x="456" d="M322 649Q358 642 389 619T438 568L416 550Q395 582 364 604T294 626Q265 626 240 617T196 591T167 550T156 498Q156 462 172 437T213 390T267 348T320 304T361 247T378 170Q378 132 365 100T328
42T270 3T195 -12L176 -110H148L168 -10Q120 -2 84 24T25 78L46 98Q57 82 72 67T106 40T147 21T194 14Q227 14 255 25T305 56T338 103T350 164Q350 207 334 237T293 291T239 335T186 377T145 426T128 492Q128 526 140 555T175 606T228 639T295 652L315 750H343L322
649Z" />
<glyph unicode="%" glyph-name="percent" horiz-adv-x="760" d="M178 258Q149 258 129 269T95 301T75 347T68 404Q68 446 79 493T111 580T165 646T242 672Q270 672 291 661T325 629T345 583T352 526Q352 484 341 437T309 350T254 284T178 258ZM240 648Q204 648
177 624T132 564T105 487T96 410Q96 383 100 360T115 320T141 292T180 282Q216 282 243 306T288 366T315 443T324 520Q324 547 320 570T305 610T279 638T240 648ZM130 -12L622 672H652L160 -12H130ZM544 -12Q515 -12 495 -1T461 31T441 77T434 134Q434 176 445
223T477 310T531 376T608 402Q636 402 657 391T691 359T711 313T718 256Q718 214 707 167T675 80T620 14T544 -12ZM606 378Q570 378 543 354T498 294T471 217T462 140Q462 113 466 90T481 50T507 22T546 12Q582 12 609 36T654 96T681 173T690 250Q690 277 686 300T671
340T645 368T606 378Z" />
<glyph unicode="&amp;" glyph-name="ampersand" horiz-adv-x="542" d="M46 140Q46 111 55 88T81 49T120 23T170 14Q214 14 256 36T336 92Q294 142 258 207T200 341Q170 320 142 299T93 253T59 201T46 140ZM204 486Q204 436 218 382Q250 403 280 424T334 468T372
518T386 577Q386 603 372 624T326 646Q299 646 277 634T239 601T213 550T204 486ZM534 341Q501 271 462 208T374 94Q401 65 426 44T478 12L464 -12Q438 -1 410 20T353 73Q311 34 264 11T163 -12Q131 -12 105 -2T58 27T27 73T16 134Q16 175 31 208T70 268T127 319T193
365Q176 427 176 482Q176 525 189 560T223 620T271 658T328 672Q373 672 393 646T414 584Q414 545 398 514T354 455T293 404T224 357Q244 289 279 225T357 112Q404 160 439 217T506 341H534Z" />
<glyph unicode="&apos;" glyph-name="quotesingle" horiz-adv-x="202" d="M158 608L170 672H198L186 608L156 478H134L158 608Z" />
<glyph unicode="(" glyph-name="parenleft" horiz-adv-x="260" d="M128 -174Q102 -109 87 -29T72 134Q72 222 88 300T134 450T207 592T304 730L322 716Q215 586 158 441T100 128Q100 90 103 51T112 -27T127 -102T148 -168L128 -174V-174Z" />
<glyph unicode=")" glyph-name="parenright" horiz-adv-x="262" d="M140 730Q166 665 181 585T196 422Q196 334 180 256T134 106T61 -36T-36 -174L-54 -160Q53 -30 110 115T168 428Q168 465 165 505T156 583T141 658T120 724L140 730V730Z" />
<glyph unicode="*" glyph-name="asterisk" horiz-adv-x="374" d="M162 502L226 582L144 626L152 646L244 614L264 712L286 710L278 612L372 626L376 604L280 578L318 488L298 476L252 560L178 488L162 502Z" />
<glyph unicode="+" glyph-name="plus" horiz-adv-x="456" d="M228 318H48V344H228V546H256V344H436V318H256V110H228V318Z" />
<glyph unicode="," glyph-name="comma" horiz-adv-x="202" d="M-34 -122Q4 -104 30 -75T62 -8H56Q42 -8 34 0T26 22Q26 37 37 50T66 64Q82 64 90 52T98 22Q98 -6 89 -31T63 -79T23 -118T-26 -146L-34 -122Z" />
<glyph unicode="-" glyph-name="hyphen" horiz-adv-x="282" d="M42 264H248L242 236H36L42 264Z" />
<glyph unicode="." glyph-name="period" horiz-adv-x="202" d="M50 -12Q36 -12 29 -3T22 18Q22 35 34 49T64 64Q78 64 84 55T90 32Q90 15 79 2T50 -12Z" />
<glyph unicode="/" glyph-name="slash" horiz-adv-x="350" d="M410 710H438L-46 -160H-74L410 710Z" />
<glyph unicode="0" glyph-name="zero" horiz-adv-x="456" d="M186 -12Q148 -12 122 6T79 53T54 119T46 196Q46 247 54 300T78 405T116 500T166 579T226 632T296 652Q333 652 359 634T403 585T428 518T436 442Q436 391 428 338T404 234T366 139T316 61T255 8T186
-12ZM294 626Q262 626 234 607T181 555T136 479T103 389T82 294T74 202Q74 166 80 132T99 72T134 30T186 14Q234 14 274 55T345 159T391 296T408 436Q408 473 402 507T381 567T346 610T294 626Z" />
<glyph unicode="1" glyph-name="one" horiz-adv-x="456" d="M38 26H182L294 582H182L186 602Q222 607 254 616T310 640H334L210 26H350L346 0H32L38 26Z" />
<glyph unicode="2" glyph-name="two" horiz-adv-x="456" d="M-6 20Q104 115 181 183T308 305T379 404T402 500Q402 525 395 548T372 588T332 616T276 626Q240 626 201 608T124 552L106 574Q148 610 189 631T278 652Q315 652 343 641T391 610T420 564T430 506Q430
450 408 401T338 297T217 178T42 26H366L362 0H-8L-6 20Z" />
<glyph unicode="3" glyph-name="three" horiz-adv-x="456" d="M18 110Q29 93 44 76T78 46T122 23T178 14Q219 14 254 27T314 62T354 116T368 182Q368 211 356 236T319 281T254 311T160 322L166 348Q233 348 278 363T352 402T393 453T406 506Q406 559 378 592T286
626Q269 626 250 622T211 610T173 591T142 566L124 588Q159 617 201 634T288 652Q363 652 398 614T434 512Q434 450 392 401T276 334V330Q329 315 362 279T396 188Q396 144 380 107T334 44T264 3T174 -12Q139 -12 111 -2T61 24T23 58T-4 94L18 110Z" />
<glyph unicode="4" glyph-name="four" horiz-adv-x="456" d="M248 0L287 194H8L10 210L384 640H404L320 220H412L406 194H315L276 0H248ZM292 220L342 470Q347 493 354 523T370 586H366Q345 559 325 535T286 490L54 220H292Z" />
<glyph unicode="5" glyph-name="five" horiz-adv-x="456" d="M20 108Q30 92 42 76T73 46T116 23T176 14Q214 14 249 29T311 73T354 140T370 226Q370 301 332 337T232 374Q196 374 170 365T114 338L96 352L176 640H442L436 614H196L130 374Q150 385 175 392T232
400Q304 400 351 358T398 232Q398 176 380 131T330 55T257 6T170 -12Q135 -12 107 -2T58 23T23 56T-2 92L20 108Z" />
<glyph unicode="6" glyph-name="six" horiz-adv-x="456" d="M248 350Q235 350 216 346T174 331T128 302T82 255Q81 242 81 229T80 202Q80 161 89 127T115 68T157 28T214 14Q245 14 274 29T326 70T362 130T376 202Q376 270 344 310T248 350ZM434 560Q416 593 392
609T332 626Q287 626 247 601T175 531T119 427T86 296Q124 338 168 358T250 378Q287 378 315 366T363 331T393 279T404 212Q404 165 389 124T348 53T287 6T212 -12Q174 -12 145 3T95 47T63 113T52 196Q52 293 73 376T133 521T222 617T334 652Q379 652 408 632T458
576L434 560Z" />
<glyph unicode="7" glyph-name="seven" horiz-adv-x="456" d="M136 0Q157 95 183 177T245 334T331 477T450 614H114L120 640H492L488 620Q412 547 360 476T271 329T211 173T168 0H136V0Z" />
<glyph unicode="8" glyph-name="eight" horiz-adv-x="456" d="M212 344Q179 327 152 308T104 267T73 217T62 156Q62 121 74 95T108 50T156 23T212 14Q244 14 275 24T330 53T369 101T384 166Q384 200 369 226T330 272T275 310T212 344ZM296 330Q320 343 342 361T383
400T411 448T422 504Q422 534 412 557T386 595T347 618T302 626Q275 626 250 617T205 589T174 546T162 488Q162 457 171 434T198 393T240 359T296 330ZM34 154Q34 193 47 224T83 281T133 325T192 358V362Q163 389 149 417T134 486Q134 525 148 556T185 608T239
640T304 652Q333 652 359 643T406 615T438 570T450 506Q450 472 440 445T413 395T372 353T320 318V314Q332 306 348 293T378 261T402 221T412 172Q412 129 396 95T353 37T289 1T212 -12Q177 -12 145 -2T89 30T49 82T34 154Z" />
<glyph unicode="9" glyph-name="nine" horiz-adv-x="456" d="M234 290Q247 290 266 294T308 309T354 338T400 385Q401 398 401 411T402 438Q402 478 393 512T367 572T324 612T268 626Q236 626 207 611T156 570T120 510T106 438Q106 370 138 330T234 290ZM48 80Q66
47 90 31T150 14Q195 14 235 39T307 109T363 213T396 344Q358 302 314 282T232 262Q195 262 167 274T119 309T89 361T78 428Q78 475 93 516T134 587T195 634T270 652Q307 652 337 637T387 593T419 527T430 444Q430 346 409 263T349 119T260 23T148 -12Q103 -12
74 8T24 64L48 80Z" />
<glyph unicode=":" glyph-name="colon" horiz-adv-x="202" d="M120 386Q106 386 99 395T92 416Q92 433 104 447T134 462Q148 462 154 453T160 430Q160 413 149 400T120 386ZM50 -12Q36 -12 29 -3T22 18Q22 35 34 49T64 64Q78 64 84 55T90 32Q90 15 79 2T50 -12Z" />
<glyph unicode=";" glyph-name="semicolon" horiz-adv-x="202" d="M120 386Q106 386 99 395T92 416Q92 433 104 447T134 462Q148 462 154 453T160 430Q160 413 149 400T120 386ZM-34 -122Q4 -104 30 -75T62 -8H56Q42 -8 34 0T26 22Q26 37 37 50T66 64Q82 64 90
52T98 22Q98 -6 89 -31T63 -79T23 -118T-26 -146L-34 -122Z" />
<glyph unicode="&lt;" glyph-name="less" horiz-adv-x="456" d="M46 344L436 504V476L206 382L84 332V328L206 278L436 184V156L46 316V344Z" />
<glyph unicode="=" glyph-name="equal" horiz-adv-x="456" d="M48 416V442H436V416H48ZM48 475V501H436V475H48Z" />
<glyph unicode="&gt;" glyph-name="greater" horiz-adv-x="456" d="M48 184L278 278L400 328V332L278 382L48 476V504L438 344V316L48 156V184Z" />
<glyph unicode="?" glyph-name="question" horiz-adv-x="380" d="M126 -12Q112 -12 105 -3T98 18Q98 35 110 49T140 64Q154 64 160 55T166 32Q166 15 155 2T126 -12ZM144 176Q146 220 162 254T202 318T253 373T304 425T342 481T358 548Q358 599 331 627T256 656Q220
656 186 639T128 594L110 614Q134 641 173 661T258 682Q318 682 352 648T386 554Q386 512 371 480T332 419T281 364T230 309T189 248T170 174L144 176Z" />
<glyph unicode="@" glyph-name="at" horiz-adv-x="772" d="M552 80Q580 80 607 97T657 147T692 227T706 334Q706 394 690 443T643 527T566 581T460 600Q387 600 318 567T194 477T107 340T74 170Q74 103 93 50T146 -40T227 -96T332 -116Q376 -116 411 -107T480
-78L492 -100Q453 -123 412 -132T330 -142Q268 -142 216 -121T126 -60T67 36T46 164Q46 264 81 348T175 494T308 591T462 626Q527 626 578 605T663 547T716 457T734 340Q734 272 718 219T676 129T616 73T548 54Q512 54 491 75T464 130H462Q436 101 409 82T346 62Q326
62 307 70T272 94T248 134T238 190Q238 232 253 273T293 347T353 400T428 420Q452 420 471 406T504 368H506L518 412H542L494 200Q482 149 494 115T552 80ZM266 196Q266 140 290 114T348 88Q404 88 458 160L498 338Q480 371 462 382T426 394Q391 394 362 376T311
328T278 264T266 196Z" />
<glyph unicode="A" glyph-name="A" horiz-adv-x="480" d="M372 264L356 396Q350 452 343 509T330 626H326Q296 564 266 510T204 396L132 264H372ZM375 238H118L-12 0H-46L320 660H350L434 0H404L375 238Z" />
<glyph unicode="B" glyph-name="B" horiz-adv-x="566" d="M172 660H328Q420 660 469 622T518 518Q518 480 504 451T467 401T418 368T368 352V348Q392 343 414 332T455 304T483 262T494 206Q494 153 475 115T422 51T338 13T230 0H40L172 660ZM260 364Q374 364 431
407T488 516Q488 572 446 603T312 634H196L142 364H260ZM212 26Q268 26 314 35T394 66T445 121T464 203Q464 261 416 299T278 338H138L74 26H212Z" />
<glyph unicode="C" glyph-name="C" horiz-adv-x="536" d="M58 246Q58 318 80 393T145 531T249 632T390 672Q446 672 482 644T542 580L518 564Q498 599 467 622T388 646Q316 646 260 609T166 513T108 386T88 252Q88 202 99 159T133 83T193 33T280 14Q328 14 366
31T442 80L460 60Q418 25 375 7T278 -12Q222 -12 181 8T113 62T72 144T58 246Z" />
<glyph unicode="D" glyph-name="D" horiz-adv-x="572" d="M172 660H276Q344 660 395 642T479 589T529 508T546 404Q546 320 524 247T457 118T347 32T194 0H40L172 660ZM196 26Q273 26 333 56T433 139T495 259T516 402Q516 453 501 495T456 569T381 617T274 634H196L74
26H196Z" />
<glyph unicode="E" glyph-name="E" horiz-adv-x="484" d="M172 660H514L508 634H196L142 364H406L400 338H138L74 26H396L390 0H40L172 660Z" />
<glyph unicode="F" glyph-name="F" horiz-adv-x="448" d="M172 660H514L508 634H196L140 352H404L398 326H136L70 0H40L172 660Z" />
<glyph unicode="G" glyph-name="G" horiz-adv-x="570" d="M58 246Q58 319 80 395T145 532T253 633T400 672Q456 672 492 644T552 580L528 564Q508 599 477 622T398 646Q323 646 265 609T168 513T109 386T88 252Q88 203 99 160T134 85T196 33T290 14Q338 14 374
29T434 68L478 290H320L326 316H514L460 54Q425 24 383 6T288 -12Q229 -12 186 7T115 60T72 142T58 246Z" />
<glyph unicode="H" glyph-name="H" horiz-adv-x="598" d="M172 660H202L142 364H498L558 660H588L456 0H426L494 338H138L70 0H40L172 660Z" />
<glyph unicode="I" glyph-name="I" horiz-adv-x="218" d="M172 660H202L70 0H40L172 660Z" />
<glyph unicode="J" glyph-name="J" horiz-adv-x="428" d="M324 168Q309 85 263 37T146 -12Q86 -12 52 17T2 90L28 102Q54 14 148 14Q207 14 243 57T294 170L392 660H422L324 168V168Z" />
<glyph unicode="K" glyph-name="K" horiz-adv-x="522" d="M172 660H202L128 290H130L526 660H564L312 420L464 0H432L288 400L120 244L70 0H40L172 660Z" />
<glyph unicode="L" glyph-name="L" horiz-adv-x="432" d="M172 660H202L76 26H376L370 0H40L172 660Z" />
<glyph unicode="M" glyph-name="M" horiz-adv-x="676" d="M172 660H222L288 262L314 112H318L396 262L616 660H666L534 0H504L596 460Q605 501 615 547T634 632H630L552 490L326 76H292L220 490L196 632H192Q184 591 177 546T162 460L70 0H40L172 660Z" />
<glyph unicode="N" glyph-name="N" horiz-adv-x="600" d="M172 660H206L390 174L438 42H442Q450 89 457 136T474 230L560 660H590L458 0H426L244 484L194 622H190Q182 574 174 528T156 436L70 0H40L172 660Z" />
<glyph unicode="O" glyph-name="O" horiz-adv-x="612" d="M274 -12Q220 -12 180 8T114 65T75 151T62 262Q62 306 71 353T98 446T142 533T203 605T280 654T372 672Q426 672 466 652T532 595T571 509T584 398Q584 354 575 307T548 214T504 127T443 55T366 6T274
-12ZM370 646Q325 646 287 629T218 582T164 515T124 434T100 349T92 266Q92 210 102 164T135 85T192 33T276 14Q343 14 395 51T482 145T536 268T554 394Q554 449 544 495T511 575T454 627T370 646Z" />
<glyph unicode="P" glyph-name="P" horiz-adv-x="524" d="M172 660H340Q431 660 481 624T532 510Q532 456 513 416T458 348T371 308T256 294H128L70 0H40L172 660ZM250 320Q375 320 438 367T502 508Q502 576 457 605T322 634H196L134 320H250Z" />
<glyph unicode="Q" glyph-name="Q" horiz-adv-x="612" d="M92 266Q92 210 102 164T135 85T192 33T276 14Q343 14 395 51T482 145T536 268T554 394Q554 449 544 495T511 575T454 627T370 646Q325 646 287 629T218 582T164 515T124 434T100 349T92 266ZM492 -144Q478
-147 467 -148T440 -150Q370 -150 316 -117T245 -10Q198 -5 164 17T107 75T73 158T62 262Q62 306 71 353T98 446T142 533T203 605T280 654T372 672Q426 672 466 652T532 595T571 509T584 398Q584 354 575 307T548 214T504 127T443 55T366 6T275 -12Q289 -68 334
-95T442 -122Q464 -122 488 -116L492 -144Z" />
<glyph unicode="R" glyph-name="R" horiz-adv-x="522" d="M260 336Q372 336 432 383T492 516Q492 581 448 607T314 634H196L138 336H260ZM332 660Q421 660 471 627T522 518Q522 474 506 438T461 375T392 332T305 311L434 0H400L273 310H132L70 0H40L172 660H332Z" />
<glyph unicode="S" glyph-name="S" horiz-adv-x="488" d="M42 114Q74 66 119 40T230 14Q267 14 299 25T356 58T394 109T408 176Q408 221 385 252T322 306L234 358Q214 370 195 385T162 418T139 458T130 506Q130 539 143 569T181 622T239 658T314 672Q374 672 419
646T490 584L468 566Q442 599 402 622T308 646Q274 646 247 634T201 603T171 559T160 510Q160 462 186 433T248 384L334 334Q381 307 409 271T438 180Q438 136 422 101T377 41T310 2T226 -12Q155 -12 103 16T18 98L42 114Z" />
<glyph unicode="T" glyph-name="T" horiz-adv-x="492" d="M306 632H100L106 660H548L542 632H336L210 0H180L306 632Z" />
<glyph unicode="U" glyph-name="U" horiz-adv-x="594" d="M170 660H200L122 270Q116 246 114 226T112 188Q112 105 152 60T272 14Q304 14 335 26T392 65T439 134T472 238L556 660H586L500 230Q486 162 463 116T408 42T341 1T268 -12Q180 -12 131 38T82 180Q82
200 83 219T90 262L170 660Z" />
<glyph unicode="V" glyph-name="V" horiz-adv-x="450" d="M84 660H112L148 260Q154 206 159 150T170 38H174Q201 92 230 149T288 260L498 660H528L180 0H146L84 660Z" />
<glyph unicode="W" glyph-name="W" horiz-adv-x="726" d="M108 660H138V260Q136 206 137 152T136 44H140Q166 98 191 152T240 260L428 660H462L476 260Q479 206 480 152T484 44H488Q511 98 533 152T580 260L748 660H780L496 0H458L442 472Q442 513 441 550T440
628H436Q421 587 404 550T368 472L148 0H110L108 660Z" />
<glyph unicode="X" glyph-name="X" horiz-adv-x="446" d="M224 344L110 660H140L214 450Q222 427 228 408T244 366H246Q264 387 281 410T316 456L468 660H500L256 338L380 0H350L272 218Q263 242 254 267T236 318H234Q213 292 193 264T154 212L-4 0H-36L224 344Z" />
<glyph unicode="Y" glyph-name="Y" horiz-adv-x="422" d="M195 273L86 660H116L175 445Q185 409 194 375T214 303H217Q242 338 266 374T315 445L466 660H498L225 273L170 0H140L195 273Z" />
<glyph unicode="Z" glyph-name="Z" horiz-adv-x="502" d="M6 18L486 634H152L158 660H528L524 642L46 26H416L410 0H2L6 18Z" />
<glyph unicode="[" glyph-name="bracketleft" horiz-adv-x="262" d="M168 -130L162 -152H18L190 708H334L332 686H208L46 -130H168Z" />
<glyph unicode="\" glyph-name="backslash" horiz-adv-x="350" d="M90 710H114L262 -160H238L90 710Z" />
<glyph unicode="]" glyph-name="bracketright" horiz-adv-x="262" d="M62 -130L228 686H104L108 708H254L82 -152H-64L-60 -130H62Z" />
<glyph unicode="^" glyph-name="asciicircum" horiz-adv-x="458" d="M236 670H260L404 290H378L298 502L250 634H248L200 502L120 290H92L236 670Z" />
<glyph unicode="_" glyph-name="underscore" horiz-adv-x="484" d="M438 -84L432 -112H-26L-20 -84H438Z" />
<glyph unicode="`" glyph-name="grave" horiz-adv-x="504" d="M280 704H314L374 570H350L280 704Z" />
<glyph unicode="a" glyph-name="a" horiz-adv-x="524" d="M46 160Q46 229 68 289T126 394T209 464T306 490Q350 490 381 468T432 410H436L454 478H478L382 0H358L370 78H366Q328 39 283 14T186 -12Q123 -12 85 31T46 160ZM188 14Q238 14 285 42T378 122L430 372Q401
422 371 443T304 464Q259 464 218 438T144 370T93 275T74 166Q74 89 104 52T188 14Z" />
<glyph unicode="b" glyph-name="b" horiz-adv-x="522" d="M44 0L188 722H216L172 506L152 408H154Q193 440 239 465T336 490Q399 490 437 447T476 318Q476 249 454 189T396 84T312 14T216 -12Q172 -12 141 10T90 68H86L68 0H44ZM334 464Q313 464 289 457T241 438T192
408T146 372L92 106Q121 56 151 35T218 14Q263 14 304 39T378 107T429 202T448 312Q448 388 418 426T334 464Z" />
<glyph unicode="c" glyph-name="c" horiz-adv-x="428" d="M44 176Q44 246 66 304T124 403T205 467T298 490Q339 490 366 475T418 432L398 412Q375 439 353 451T296 464Q254 464 214 442T142 380T91 290T72 182Q72 99 106 57T212 14Q250 14 282 29T342 66L358 44Q332
24 296 6T210 -12Q133 -12 89 36T44 176Z" />
<glyph unicode="d" glyph-name="d" horiz-adv-x="526" d="M456 506L500 722H528L382 0H358L370 78H366Q328 39 283 14T186 -12Q123 -12 85 31T46 160Q46 229 68 289T126 394T209 464T306 490Q350 490 381 468T432 410H436L456 506ZM188 14Q238 14 285 42T378 122L430
372Q401 422 371 443T304 464Q259 464 218 438T144 370T93 275T74 166Q74 89 104 52T188 14Z" />
<glyph unicode="e" glyph-name="e" horiz-adv-x="468" d="M44 184Q44 252 65 308T121 405T200 468T290 490Q328 490 355 478T399 443T424 390T432 322Q432 298 429 278T420 242H78Q67 182 75 139T104 68T156 27T226 14Q259 14 291 28T350 62L364 40Q335 19 299
4T224 -12Q141 -12 93 37T44 184ZM398 268Q401 283 402 297T404 328Q404 353 398 377T379 421T343 452T288 464Q254 464 222 450T162 409T115 347T84 268H398Z" />
<glyph unicode="f" glyph-name="f" horiz-adv-x="246" d="M80 474L144 478L168 598Q183 669 216 701T292 734Q316 734 332 728T362 712L348 690Q336 698 323 703T290 708Q271 708 256 699T229 675T209 640T196 598L172 478H280L274 452H166L76 0H48L138 452H76L80 474Z" />
<glyph unicode="g" glyph-name="g" horiz-adv-x="518" d="M472 478L366 -48Q348 -134 298 -184T166 -234Q113 -234 75 -214T6 -168L24 -146Q51 -172 87 -190T168 -208Q241 -208 283 -159T342 -30L366 82H362Q324 46 280 21T184 -4Q122 -4 84 39T46 166Q46 233
68 292T126 395T207 464T300 490Q343 490 374 468T426 410H430L448 478H472ZM186 22Q228 22 278 49T372 124L424 372Q395 422 365 443T298 464Q255 464 215 439T144 372T93 278T74 172Q74 97 103 60T186 22Z" />
<glyph unicode="h" glyph-name="h" horiz-adv-x="498" d="M188 722H216L160 444L148 398H152Q200 439 242 464T328 490Q390 490 416 458T442 374Q442 356 441 344T434 310L372 0H344L406 306Q411 329 412 342T414 370Q414 417 393 440T324 464Q291 464 246 439T144
358L72 0H44L188 722Z" />
<glyph unicode="i" glyph-name="i" horiz-adv-x="214" d="M140 478H168L72 0H44L140 478ZM180 600Q168 600 160 608T152 628Q152 646 163 657T188 668Q200 668 208 660T216 638Q216 621 205 611T180 600Z" />
<glyph unicode="j" glyph-name="j" horiz-adv-x="214" d="M52 -98Q38 -163 12 -198T-60 -234Q-81 -234 -94 -229T-118 -218L-106 -194Q-97 -200 -88 -204T-58 -208Q-28 -208 -9 -180T22 -104L140 478H168L52 -98ZM180 600Q168 600 160 608T152 628Q152 646 163
657T188 668Q200 668 208 660T216 638Q216 621 205 611T180 600Z" />
<glyph unicode="k" glyph-name="k" horiz-adv-x="436" d="M188 722H216L108 176H110L408 478H444L258 286L374 0H344L236 266L98 126L72 0H44L188 722Z" />
<glyph unicode="l" glyph-name="l" horiz-adv-x="226" d="M188 722H216L82 48Q80 40 80 36T80 28Q80 14 94 14Q97 14 99 14T110 18L114 -6Q106 -9 101 -10T86 -12Q71 -12 61 -3T50 24Q50 29 51 35T54 50L188 722Z" />
<glyph unicode="m" glyph-name="m" horiz-adv-x="776" d="M140 478H164L152 400H156Q197 439 239 464T316 490Q346 490 366 482T400 459T419 427T426 388Q477 438 522 464T602 490Q662 490 688 458T714 374Q714 356 713 344T706 310L644 0H616L678 306Q683 329
684 342T686 370Q686 417 666 440T598 464Q574 464 529 439T430 358L358 0H330L392 306Q397 329 398 342T400 370Q400 417 380 440T312 464Q288 464 243 439T144 358L72 0H44L140 478Z" />
<glyph unicode="n" glyph-name="n" horiz-adv-x="504" d="M140 478H164L152 400H156Q201 439 242 464T328 490Q390 490 416 458T442 374Q442 356 441 344T434 310L372 0H344L406 306Q411 329 412 342T414 370Q414 417 393 440T324 464Q291 464 246 439T144 358L72
0H44L140 478Z" />
<glyph unicode="o" glyph-name="o" horiz-adv-x="500" d="M204 -12Q132 -12 89 36T46 176Q46 243 67 300T122 400T202 466T296 490Q368 490 411 442T454 302Q454 235 433 178T378 78T298 12T204 -12ZM294 464Q253 464 214 442T144 380T93 290T74 182Q74 99 108
57T206 14Q246 14 285 36T356 98T407 188T426 296Q426 379 392 421T294 464Z" />
<glyph unicode="p" glyph-name="p" horiz-adv-x="520" d="M62 -42L28 -222H0L140 478H164L152 408H156Q195 440 240 465T336 490Q399 490 437 446T476 318Q476 249 454 189T396 84T312 14T216 -12Q172 -12 140 10T86 68H84L62 -42ZM334 464Q313 464 289 457T241
438T192 408T146 370L92 102Q121 54 151 34T218 14Q263 14 304 39T378 107T429 202T448 312Q448 388 418 426T334 464Z" />
<glyph unicode="q" glyph-name="q" horiz-adv-x="524" d="M370 80H368Q330 41 284 15T186 -12Q123 -12 85 31T46 160Q46 229 68 289T126 394T209 464T306 490Q350 490 381 468T432 410H436L454 478H478L338 -222H310L346 -42L370 80ZM188 14Q230 14 281 42T378
122L430 372Q401 422 371 443T304 464Q259 464 218 438T144 370T93 275T74 166Q74 89 104 52T188 14Z" />
<glyph unicode="r" glyph-name="r" horiz-adv-x="308" d="M140 478H164L148 388H152Q182 430 218 460T302 490Q311 490 321 489T344 482L332 454Q326 457 318 459T296 462Q257 462 213 425T136 322L72 0H44L140 478Z" />
<glyph unicode="s" glyph-name="s" horiz-adv-x="384" d="M22 92Q42 60 78 37T162 14Q188 14 211 22T253 46T281 80T292 122Q292 137 289 150T275 175T247 201T200 230Q166 248 143 263T106 294T86 324T80 358Q80 388 92 412T124 454T170 480T226 490Q265 490
297 475T354 434L334 414Q314 435 288 449T224 464Q200 464 179 456T142 435T117 403T108 364Q108 328 135 306T198 264Q239 241 263 223T300 189T316 158T320 128Q320 96 308 70T274 26T222 -2T158 -12Q132 -12 108 -4T63 16T26 44T0 76L22 92Z" />
<glyph unicode="t" glyph-name="t" horiz-adv-x="290" d="M146 452H70L74 474L152 478L184 616H208L180 478H312L306 452H174L106 122Q104 113 103 104T102 84Q102 49 116 32T172 14Q190 14 205 20T232 32L242 10Q228 2 210 -5T170 -12Q116 -12 95 15T74 78Q74
92 75 102T78 124L146 452Z" />
<glyph unicode="u" glyph-name="u" horiz-adv-x="514" d="M372 0H348L360 80H356Q311 41 270 15T184 -12Q122 -12 96 20T70 104Q70 122 71 134T78 168L140 478H168L106 172Q101 149 100 136T98 108Q98 61 119 38T188 14Q221 14 266 39T368 120L440 478H468L372 0Z" />
<glyph unicode="v" glyph-name="v" horiz-adv-x="408" d="M58 478H86L136 166Q142 131 147 95T158 26H162Q180 61 199 96T238 166L408 478H438L174 0H136L58 478Z" />
<glyph unicode="w" glyph-name="w" horiz-adv-x="674" d="M68 478H96L124 154Q127 121 130 90T136 26H140Q155 58 169 89T198 154L348 478H388L412 154Q414 121 416 90T420 26H424Q439 58 453 89T484 154L638 478H666L438 0H396L374 312Q371 347 370 384T366 454H362Q347
421 331 384T298 312L154 0H112L68 478Z" />
<glyph unicode="x" glyph-name="x" horiz-adv-x="380" d="M178 252L82 478H112L164 352Q173 329 180 311T196 272H200Q218 292 236 311T272 352L384 478H416L212 246L316 0H286L232 136Q223 159 213 182T192 228H188Q170 205 151 184T108 138L-14 0H-48L178 252Z" />
<glyph unicode="y" glyph-name="y" horiz-adv-x="408" d="M-72 -188Q-56 -196 -38 -196Q7 -196 45 -158T116 -54L138 -10L58 478H86L136 166Q142 131 147 94T158 24H162Q180 59 199 94T238 166L408 478H438L138 -66Q124 -94 107 -121T67 -171T19 -208T-40 -222Q-48
-222 -59 -220T-84 -212L-72 -188V-188Z" />
<glyph unicode="z" glyph-name="z" horiz-adv-x="384" d="M-8 18L364 452H110L116 478H406L404 460L32 26H324L318 0H-10L-8 18Z" />
<glyph unicode="{" glyph-name="braceleft" horiz-adv-x="260" d="M48 -78Q48 -52 57 -13T77 68T97 148T106 212Q106 222 104 231T94 248T72 261T36 266L42 290Q68 290 85 297T114 316T131 342T140 372Q149 420 157 474T176 580Q183 617 193 642T218 681T253 702T300
708H332L328 686H296Q249 686 229 658T198 576Q189 531 182 481T166 382Q157 340 142 314T94 278V274Q115 265 121 250T128 220Q128 193 119 154T100 73T81 -8T72 -72Q72 -101 85 -115T136 -130H166L160 -152H130Q88 -152 68 -136T48 -78Z" />
<glyph unicode="|" glyph-name="bar" horiz-adv-x="212" d="M100 750H126V-250H100V750Z" />
<glyph unicode="}" glyph-name="braceright" horiz-adv-x="262" d="M220 634Q220 608 211 568T191 486T171 406T162 342Q162 333 164 324T174 307T195 295T232 290L226 266Q200 266 183 259T154 240T137 214T128 184Q119 136 111 81T92 -26Q84 -64 74 -88T49 -126T14
-146T-32 -152H-64L-60 -130H-28Q19 -130 39 -103T70 -22Q79 23 86 73T102 172Q111 216 126 242T174 278V282Q151 291 146 306T140 336Q140 362 148 401T167 481T187 561T196 626Q196 656 183 671T132 686H102L108 708H138Q180 708 200 691T220 634Z" />
<glyph unicode="~" glyph-name="asciitilde" horiz-adv-x="456" d="M50 312Q70 351 96 370T150 390Q177 390 200 376T244 344T284 313T324 298Q347 298 365 312T402 362L424 350Q404 311 378 292T324 272Q297 272 274 286T230 318T190 349T150 364Q127 364 109
350T72 300L50 312Z" />
<glyph unicode="&#xa0;" glyph-name="uni00A0" horiz-adv-x="188" />
<glyph unicode="&#xa1;" glyph-name="exclamdown" horiz-adv-x="242" d="M64 -130L52 -194H24L36 -130L124 306H148L64 -130ZM170 490Q184 490 191 481T198 460Q198 443 186 429T156 414Q142 414 136 423T130 446Q130 463 141 476T170 490Z" />
<glyph unicode="&#xa2;" glyph-name="cent" horiz-adv-x="456" d="M303 532Q270 529 236 511T175 462T130 389T112 294Q112 224 139 181T224 129L303 532ZM336 557Q374 552 400 535T446 494L426 474Q405 500 384 514T331 531L251 128Q292 130 325 145T384 180L398
156Q384 147 369 138T335 121T295 108T246 102L224 -10H196L219 104Q155 112 119 159T82 288Q82 349 102 398T155 482T228 536T309 558L330 666H358L336 557Z" />
<glyph unicode="&#xa3;" glyph-name="sterling" horiz-adv-x="456" d="M158 322Q156 352 153 383T150 442Q150 541 199 596T330 652Q354 652 373 645T408 626T436 600T456 570L432 554Q415 584 389 605T328 626Q295 626 268 613T220 576T189 520T178 448Q178 420
181 388T186 322H350L344 296H188V274Q188 194 161 136T80 30V26H358L354 0H8L12 16Q89 57 124 124T160 268Q160 275 160 281T159 296H64L70 318L158 322Z" />
<glyph unicode="&#xa4;" glyph-name="currency" horiz-adv-x="456" d="M330 199Q304 174 272 160T204 146Q136 146 102 195L30 132L14 152L89 218Q83 234 80 252T76 294Q76 340 92 381T138 453L90 518L110 534L157 471Q183 493 213 505T276 518Q340 518 376 471L450
536L466 516L389 448Q404 416 404 370Q404 326 389 287T348 218L404 144L384 128L330 199ZM274 492Q243 492 213 477T158 437T119 376T104 300Q104 237 130 205T206 172Q237 172 267 187T322 227T361 288T376 364Q376 427 350 459T274 492Z" />
<glyph unicode="&#xa5;" glyph-name="yen" horiz-adv-x="456" d="M142 640L198 436Q207 403 216 369T234 296H238Q264 335 286 369T332 436L464 640H494L264 296H414L408 272H246L232 194H394L388 170H226L192 0H164L198 170H36L42 194H204L218 272H56L62 296H212L114
640H142Z" />
<glyph unicode="&#xa6;" glyph-name="brokenbar" horiz-adv-x="212" d="M100 750H126V274H100V750ZM126 220V-250H100V220H126Z" />
<glyph unicode="&#xa7;" glyph-name="section" horiz-adv-x="454" d="M284 170Q308 179 326 188T356 211T374 243T380 286Q380 325 359 350T309 396T247 435T191 476Q144 458 117 429T90 352Q90 314 111 290T163 248T227 212T284 170ZM402 592Q379 619 350 636T286
654Q267 654 249 648T217 629T195 598T186 558Q186 528 202 508T243 470T297 436T350 401T391 355T408 292Q408 233 380 203T300 151Q316 125 316 92Q316 64 305 40T275 -3T230 -33T174 -44Q132 -44 95 -26T26 24L46 46Q73 16 106 -1T176 -18Q198 -18 218 -10T254
11T279 44T288 86Q288 118 272 140T230 178T175 210T121 243T79 285T62 346Q62 403 93 439T175 495Q158 520 158 552Q158 582 168 605T196 645T237 671T288 680Q330 680 364 660T424 612L402 592Z" />
<glyph unicode="&#xa8;" glyph-name="dieresis" horiz-adv-x="504" d="M264 602Q238 602 238 628Q238 645 248 655T270 666Q296 666 296 638Q296 623 286 613T264 602ZM410 602Q384 602 384 628Q384 645 394 655T416 666Q442 666 442 638Q442 623 432 613T410 602Z" />
<glyph unicode="&#xa9;" glyph-name="copyright" horiz-adv-x="660" d="M184 272Q184 327 202 371T249 446T313 493T382 510Q418 510 438 497T476 460L456 442Q441 462 424 473T380 484Q351 484 322 469T268 426T228 361T212 278Q212 213 242 182T324 150Q359
150 387 165T442 198L456 176Q426 155 396 140T322 124Q262 124 223 160T184 272ZM298 -12Q240 -12 193 8T111 64T59 151T40 264Q40 334 65 403T136 527T247 617T394 652Q452 652 499 632T581 576T633 488T652 376Q652 306 627 237T556 113T445 23T298 -12ZM392
628Q318 628 258 595T155 510T89 394T66 268Q66 209 82 162T129 82T203 30T300 12Q374 12 434 45T537 130T603 246T626 372Q626 430 610 477T563 558T489 610T392 628Z" />
<glyph unicode="&#xaa;" glyph-name="ordfeminine" horiz-adv-x="346" d="M64 378Q64 423 79 462T118 531T174 577T240 594Q264 594 285 583T320 544H324L336 586H356L294 270H272L282 322H278Q252 295 223 279T158 262Q116 262 90 291T64 378ZM160 286Q190 286
223 307T286 360L316 512Q298 545 279 557T238 570Q210 570 184 554T136 512T103 451T90 382Q90 332 110 309T160 286Z" />
<glyph unicode="&#xab;" glyph-name="guillemotleft" horiz-adv-x="372" d="M40 240L46 272L204 428L220 412L72 252L162 86L142 74L40 240ZM176 240L182 272L340 428L356 412L208 252L298 86L278 74L176 240Z" />
<glyph unicode="&#xac;" glyph-name="logicalnot" horiz-adv-x="456" d="M48 344H436V110H408V318H48V344Z" />
<glyph unicode="&#xad;" glyph-name="uni00AD" horiz-adv-x="282" d="M42 264H248L242 236H36L42 264Z" />
<glyph unicode="&#xae;" glyph-name="registered" horiz-adv-x="376" d="M204 624H258Q287 624 302 610T318 566Q318 542 304 525T268 500L298 418H270L244 494H204L188 418H162L204 624ZM236 518Q262 518 277 529T292 564Q292 581 283 590T254 600H224L210 518H236ZM220
332Q188 332 160 343T111 376T78 427T66 494Q66 535 81 573T121 640T182 688T258 706Q289 706 317 694T366 661T399 610T412 544Q412 502 397 464T356 397T295 350T220 332ZM256 682Q222 682 193 667T141 627T105 568T92 498Q92 436 126 396T222 356Q255 356 284
370T336 410T372 469T386 540Q386 571 377 597T351 642T310 671T256 682Z" />
<glyph unicode="&#xaf;" glyph-name="overscore" horiz-adv-x="504" d="M232 634H444L440 608H228L232 634Z" />
<glyph unicode="&#xb0;" glyph-name="degree" horiz-adv-x="284" d="M198 456Q159 456 133 483T106 554Q106 580 115 603T139 645T175 673T220 684Q259 684 285 657T312 586Q312 560 303 537T279 495T243 467T198 456ZM218 660Q198 660 183 651T156 628T138 595T132
558Q132 525 150 503T200 480Q219 480 235 489T262 512T280 545T286 582Q286 615 268 637T218 660Z" />
<glyph unicode="&#xb1;" glyph-name="plusminus" horiz-adv-x="456" d="M228 318H48V344H228V546H256V344H436V318H256V110H228V318ZM48 0V26H436V0H48Z" />
<glyph unicode="&#xb2;" glyph-name="two.sups" horiz-adv-x="344" d="M100 464Q169 514 216 552T293 621T336 681T350 742Q350 778 331 798T272 818Q246 818 222 802T176 762L158 780Q181 804 210 823T274 842Q322 842 350 816T378 744Q378 709 364 678T321 614T248
545T142 464H342L338 440H96L100 464Z" />
<glyph unicode="&#xb3;" glyph-name="three.sups" horiz-adv-x="344" d="M114 522Q129 493 153 473T218 452Q238 452 256 458T289 475T311 503T320 542Q320 577 289 603T196 630L202 654Q240 654 267 662T311 684T336 714T344 748Q344 780 324 799T268 818Q219
818 172 779L158 800Q209 842 270 842Q315 842 343 818T372 748Q372 712 345 681T272 638Q311 627 329 601T348 548Q348 519 337 497T308 460T266 436T216 428Q171 428 139 453T92 508L114 522Z" />
<glyph unicode="&#xb4;" glyph-name="acute" horiz-adv-x="504" d="M390 704H428L302 570H274L390 704Z" />
<glyph unicode="&#xb5;" glyph-name="uni00B5" horiz-adv-x="510" d="M102 172Q97 149 96 136T94 108Q94 61 115 38T184 14Q217 14 262 39T364 120L436 478H464L368 0H344L356 80H352Q307 41 266 15T180 -12Q144 -12 116 4T76 58L58 -42L28 -200H0L136 478H164L102 172Z" />
<glyph unicode="&#xb6;" glyph-name="paragraph" horiz-adv-x="476" d="M436 660H464L316 -80H288L436 660ZM300 248Q254 248 214 259T143 291T94 344T76 418Q76 478 98 523T156 599T238 644T334 660H386L302 248H300Z" />
<glyph unicode="&#xb7;" glyph-name="middot" horiz-adv-x="202" d="M110 292Q96 292 89 301T82 322Q82 339 94 353T124 368Q138 368 144 359T150 336Q150 319 139 306T110 292Z" />
<glyph unicode="&#xb8;" glyph-name="cedilla" horiz-adv-x="504" d="M202 2H230L186 -60Q204 -66 218 -78T232 -114Q232 -135 222 -151T196 -178T157 -197T112 -208L108 -188Q150 -179 178 -163T206 -120Q206 -100 192 -91T148 -74L202 2Z" />
<glyph unicode="&#xb9;" glyph-name="one.sups" horiz-adv-x="340" d="M278 774H186L190 794Q228 800 250 807T294 830H316L238 440H212L278 774Z" />
<glyph unicode="&#xba;" glyph-name="ordmasculine" horiz-adv-x="340" d="M172 262Q121 262 93 294T64 386Q64 433 79 471T118 537T173 579T236 594Q287 594 315 562T344 470Q344 423 329 385T290 319T234 277T172 262ZM234 570Q206 570 180 556T134 516T102
459T90 390Q90 340 111 313T174 286Q202 286 228 300T274 340T306 397T318 466Q318 516 297 543T234 570Z" />
<glyph unicode="&#xbb;" glyph-name="guillemotright" horiz-adv-x="372" d="M200 262L194 230L36 74L20 90L168 250L78 416L98 428L200 262ZM336 262L330 230L172 74L156 90L304 250L214 416L234 428L336 262Z" />
<glyph unicode="&#xbc;" glyph-name="onequarter" horiz-adv-x="724" d="M222 604H130L134 624Q172 630 194 637T238 660H260L182 270H156L222 604ZM120 -12L612 672H642L150 -12H120ZM573 144L592 242L616 340H612L540 258L438 144H573ZM650 120H594L570 0H544L568
120H398L402 138L630 390H648L599 144H656L650 120Z" />
<glyph unicode="&#xbd;" glyph-name="onehalf" horiz-adv-x="740" d="M218 604H126L130 624Q168 630 190 637T234 660H256L178 270H152L218 604ZM90 -12L582 672H612L120 -12H90ZM406 24Q475 74 522 112T599 181T642 241T656 302Q656 338 637 358T578 378Q552
378 528 362T482 322L464 340Q487 364 516 383T580 402Q628 402 656 376T684 304Q684 269 670 238T627 174T554 105T448 24H648L644 0H402L406 24Z" />
<glyph unicode="&#xbe;" glyph-name="threequarters" horiz-adv-x="744" d="M74 352Q89 323 113 303T178 282Q198 282 216 288T249 305T271 333T280 372Q280 407 249 433T156 460L162 484Q200 484 227 492T271 514T296 544T304 578Q304 610 284 629T228 648Q179
648 132 609L118 630Q169 672 230 672Q275 672 303 648T332 578Q332 542 305 511T232 468Q271 457 289 431T308 378Q308 349 297 327T268 290T226 266T176 258Q131 258 99 283T52 338L74 352ZM162 -12L654 672H684L192 -12H162ZM595 144L614 242L638 340H634L562
258L460 144H595ZM672 120H616L592 0H566L590 120H420L424 138L652 390H670L621 144H678L672 120Z" />
<glyph unicode="&#xbf;" glyph-name="questiondown" horiz-adv-x="380" d="M254 492Q268 492 275 483T282 462Q282 445 270 431T240 416Q226 416 220 425T214 448Q214 465 225 478T254 492ZM236 304Q235 260 219 226T178 162T127 107T76 55T38 -2T22 -68Q22 -119
49 -147T124 -176Q160 -176 194 -159T252 -114L270 -134Q246 -161 207 -181T122 -202Q62 -202 28 -168T-6 -74Q-6 -33 9 0T48 61T99 116T150 171T191 232T210 306L236 304Z" />
<glyph unicode="&#xc0;" glyph-name="Agrave" horiz-adv-x="480" d="M372 264L356 396Q350 452 343 509T330 626H326Q296 564 266 510T204 396L132 264H372ZM375 238H118L-12 0H-46L320 660H350L434 0H404L375 238ZM252 812H286L364 710H338L252 812Z" />
<glyph unicode="&#xc1;" glyph-name="Aacute" horiz-adv-x="480" d="M372 264L356 396Q350 452 343 509T330 626H326Q296 564 266 510T204 396L132 264H372ZM375 238H118L-12 0H-46L320 660H350L434 0H404L375 238ZM412 812H450L330 710H302L412 812Z" />
<glyph unicode="&#xc2;" glyph-name="Acircumflex" horiz-adv-x="480" d="M372 264L356 396Q350 452 343 509T330 626H326Q296 564 266 510T204 396L132 264H372ZM375 238H118L-12 0H-46L320 660H350L434 0H404L375 238ZM340 812H364L436 710H410L352 786H348L258
710H228L340 812Z" />
<glyph unicode="&#xc3;" glyph-name="Atilde" horiz-adv-x="480" d="M372 264L356 396Q350 452 343 509T330 626H326Q296 564 266 510T204 396L132 264H372ZM375 238H118L-12 0H-46L320 660H350L434 0H404L375 238ZM213 718Q216 732 223 747T240 774T264 794T294
802Q310 802 322 793T344 771T365 750T391 740Q410 740 423 757T445 800H467Q464 786 457 771T440 744T416 724T386 716Q369 716 358 725T336 747T315 768T289 778Q270 778 257 761T235 718H213Z" />
<glyph unicode="&#xc4;" glyph-name="Adieresis" horiz-adv-x="480" d="M372 264L356 396Q350 452 343 509T330 626H326Q296 564 266 510T204 396L132 264H372ZM375 238H118L-12 0H-46L320 660H350L434 0H404L375 238ZM266 726Q240 726 240 752Q240 769 250 779T272
790Q298 790 298 762Q298 747 288 737T266 726ZM412 726Q386 726 386 752Q386 769 396 779T418 790Q444 790 444 762Q444 747 434 737T412 726Z" />
<glyph unicode="&#xc5;" glyph-name="Aring" horiz-adv-x="480" d="M372 264L356 396Q350 452 343 509T330 626H326Q296 564 266 510T204 396L132 264H372ZM375 238H118L-12 0H-46L320 660H350L434 0H404L375 238ZM336 698Q306 698 286 716T266 772Q266 810 291
836T352 862Q382 862 402 844T422 788Q422 750 397 724T336 698ZM350 840Q326 840 308 822T290 774Q290 748 302 734T338 720Q362 720 380 738T398 786Q398 812 386 826T350 840Z" />
<glyph unicode="&#xc6;" glyph-name="AE" horiz-adv-x="774" d="M470 632H466L292 392L189 252H394L470 632ZM500 634L446 364H696L690 338H442L378 26H686L680 0H344L389 226H170L4 0H-32L458 660H804L798 634H500Z" />
<glyph unicode="&#xc7;" glyph-name="Ccedilla" horiz-adv-x="536" d="M58 246Q58 318 80 393T145 531T249 632T390 672Q446 672 482 644T542 580L518 564Q498 599 467 622T388 646Q316 646 260 609T166 513T108 386T88 252Q88 202 99 159T133 83T193 33T280 14Q328
14 366 31T442 80L460 60Q418 25 375 7T278 -12Q222 -12 181 8T113 62T72 144T58 246ZM262 2H290L246 -60Q264 -66 278 -78T292 -114Q292 -135 282 -151T256 -178T217 -197T172 -208L168 -188Q210 -179 238 -163T266 -120Q266 -100 252 -91T208 -74L262 2Z" />
<glyph unicode="&#xc8;" glyph-name="Egrave" horiz-adv-x="484" d="M172 660H514L508 634H196L142 364H406L400 338H138L74 26H396L390 0H40L172 660ZM270 812H304L382 710H356L270 812Z" />
<glyph unicode="&#xc9;" glyph-name="Eacute" horiz-adv-x="484" d="M172 660H514L508 634H196L142 364H406L400 338H138L74 26H396L390 0H40L172 660ZM430 812H468L348 710H320L430 812Z" />
<glyph unicode="&#xca;" glyph-name="Ecircumflex" horiz-adv-x="484" d="M172 660H514L508 634H196L142 364H406L400 338H138L74 26H396L390 0H40L172 660ZM358 812H382L454 710H428L370 786H366L276 710H246L358 812Z" />
<glyph unicode="&#xcb;" glyph-name="Edieresis" horiz-adv-x="484" d="M172 660H514L508 634H196L142 364H406L400 338H138L74 26H396L390 0H40L172 660ZM284 726Q258 726 258 752Q258 769 268 779T290 790Q316 790 316 762Q316 747 306 737T284 726ZM430 726Q404
726 404 752Q404 769 414 779T436 790Q462 790 462 762Q462 747 452 737T430 726Z" />
<glyph unicode="&#xcc;" glyph-name="Igrave" horiz-adv-x="218" d="M172 660H202L70 0H40L172 660ZM110 812H144L222 710H196L110 812Z" />
<glyph unicode="&#xcd;" glyph-name="Iacute" horiz-adv-x="218" d="M172 660H202L70 0H40L172 660ZM270 812H308L188 710H160L270 812Z" />
<glyph unicode="&#xce;" glyph-name="Icircumflex" horiz-adv-x="218" d="M172 660H202L70 0H40L172 660ZM198 812H222L294 710H268L210 786H206L116 710H86L198 812Z" />
<glyph unicode="&#xcf;" glyph-name="Idieresis" horiz-adv-x="218" d="M172 660H202L70 0H40L172 660ZM124 726Q98 726 98 752Q98 769 108 779T130 790Q156 790 156 762Q156 747 146 737T124 726ZM270 726Q244 726 244 752Q244 769 254 779T276 790Q302 790 302
762Q302 747 292 737T270 726Z" />
<glyph unicode="&#xd0;" glyph-name="Eth" horiz-adv-x="590" d="M214 26Q291 26 351 56T451 139T513 259T534 402Q534 453 519 495T474 569T399 617T292 634H214L160 364H330L324 338H155L92 26H214ZM294 660Q362 660 413 642T497 589T547 508T564 404Q564 320
542 247T475 118T365 32T212 0H58L126 338H54L60 362L131 364L190 660H294Z" />
<glyph unicode="&#xd1;" glyph-name="Ntilde" horiz-adv-x="600" d="M172 660H206L390 174L438 42H442Q450 89 457 136T474 230L560 660H590L458 0H426L244 484L194 622H190Q182 574 174 528T156 436L70 0H40L172 660ZM265 718Q268 732 275 747T292 774T316 794T346
802Q362 802 374 793T396 771T417 750T443 740Q462 740 475 757T497 800H519Q516 786 509 771T492 744T468 724T438 716Q421 716 410 725T388 747T367 768T341 778Q322 778 309 761T287 718H265Z" />
<glyph unicode="&#xd2;" glyph-name="Ograve" horiz-adv-x="612" d="M274 -12Q220 -12 180 8T114 65T75 151T62 262Q62 306 71 353T98 446T142 533T203 605T280 654T372 672Q426 672 466 652T532 595T571 509T584 398Q584 354 575 307T548 214T504 127T443 55T366
6T274 -12ZM370 646Q325 646 287 629T218 582T164 515T124 434T100 349T92 266Q92 210 102 164T135 85T192 33T276 14Q343 14 395 51T482 145T536 268T554 394Q554 449 544 495T511 575T454 627T370 646ZM314 812H348L426 710H400L314 812Z" />
<glyph unicode="&#xd3;" glyph-name="Oacute" horiz-adv-x="612" d="M274 -12Q220 -12 180 8T114 65T75 151T62 262Q62 306 71 353T98 446T142 533T203 605T280 654T372 672Q426 672 466 652T532 595T571 509T584 398Q584 354 575 307T548 214T504 127T443 55T366
6T274 -12ZM370 646Q325 646 287 629T218 582T164 515T124 434T100 349T92 266Q92 210 102 164T135 85T192 33T276 14Q343 14 395 51T482 145T536 268T554 394Q554 449 544 495T511 575T454 627T370 646ZM474 812H512L392 710H364L474 812Z" />
<glyph unicode="&#xd4;" glyph-name="Ocircumflex" horiz-adv-x="612" d="M274 -12Q220 -12 180 8T114 65T75 151T62 262Q62 306 71 353T98 446T142 533T203 605T280 654T372 672Q426 672 466 652T532 595T571 509T584 398Q584 354 575 307T548 214T504 127T443
55T366 6T274 -12ZM370 646Q325 646 287 629T218 582T164 515T124 434T100 349T92 266Q92 210 102 164T135 85T192 33T276 14Q343 14 395 51T482 145T536 268T554 394Q554 449 544 495T511 575T454 627T370 646ZM402 812H426L498 710H472L414 786H410L320 710H290L402
812Z" />
<glyph unicode="&#xd5;" glyph-name="Otilde" horiz-adv-x="612" d="M274 -12Q220 -12 180 8T114 65T75 151T62 262Q62 306 71 353T98 446T142 533T203 605T280 654T372 672Q426 672 466 652T532 595T571 509T584 398Q584 354 575 307T548 214T504 127T443 55T366
6T274 -12ZM370 646Q325 646 287 629T218 582T164 515T124 434T100 349T92 266Q92 210 102 164T135 85T192 33T276 14Q343 14 395 51T482 145T536 268T554 394Q554 449 544 495T511 575T454 627T370 646ZM275 718Q278 732 285 747T302 774T326 794T356 802Q372
802 384 793T406 771T427 750T453 740Q472 740 485 757T507 800H529Q526 786 519 771T502 744T478 724T448 716Q431 716 420 725T398 747T377 768T351 778Q332 778 319 761T297 718H275Z" />
<glyph unicode="&#xd6;" glyph-name="Odieresis" horiz-adv-x="612" d="M274 -12Q220 -12 180 8T114 65T75 151T62 262Q62 306 71 353T98 446T142 533T203 605T280 654T372 672Q426 672 466 652T532 595T571 509T584 398Q584 354 575 307T548 214T504 127T443
55T366 6T274 -12ZM370 646Q325 646 287 629T218 582T164 515T124 434T100 349T92 266Q92 210 102 164T135 85T192 33T276 14Q343 14 395 51T482 145T536 268T554 394Q554 449 544 495T511 575T454 627T370 646ZM328 726Q302 726 302 752Q302 769 312 779T334 790Q360
790 360 762Q360 747 350 737T328 726ZM474 726Q448 726 448 752Q448 769 458 779T480 790Q506 790 506 762Q506 747 496 737T474 726Z" />
<glyph unicode="&#xd7;" glyph-name="multiply" horiz-adv-x="456" d="M84 148L66 166L224 332L66 496L84 514L242 350L400 514L418 496L260 332L418 166L400 148L242 314L84 148Z" />
<glyph unicode="&#xd8;" glyph-name="Oslash" horiz-adv-x="612" d="M129 94Q152 56 187 35T276 14Q343 14 395 51T482 145T536 268T554 394Q554 436 549 472T531 537L129 94ZM519 561Q497 601 461 623T370 646Q325 646 287 629T218 582T164 515T124 434T100 349T92
266Q92 181 116 121L519 561ZM552 561Q569 527 576 487T584 398Q584 354 575 307T548 214T504 127T443 55T366 6T274 -12Q217 -12 176 10T109 72L24 -22L2 -4L95 97Q62 164 62 262Q62 306 71 353T98 446T142 533T203 605T280 654T372 672Q430 672 472 649T540 584L626
678L642 660L552 561Z" />
<glyph unicode="&#xd9;" glyph-name="Ugrave" horiz-adv-x="594" d="M170 660H200L122 270Q116 246 114 226T112 188Q112 105 152 60T272 14Q304 14 335 26T392 65T439 134T472 238L556 660H586L500 230Q486 162 463 116T408 42T341 1T268 -12Q180 -12 131 38T82
180Q82 200 83 219T90 262L170 660ZM302 812H336L414 710H388L302 812Z" />
<glyph unicode="&#xda;" glyph-name="Uacute" horiz-adv-x="594" d="M170 660H200L122 270Q116 246 114 226T112 188Q112 105 152 60T272 14Q304 14 335 26T392 65T439 134T472 238L556 660H586L500 230Q486 162 463 116T408 42T341 1T268 -12Q180 -12 131 38T82
180Q82 200 83 219T90 262L170 660ZM462 812H500L380 710H352L462 812Z" />
<glyph unicode="&#xdb;" glyph-name="Ucircumflex" horiz-adv-x="594" d="M170 660H200L122 270Q116 246 114 226T112 188Q112 105 152 60T272 14Q304 14 335 26T392 65T439 134T472 238L556 660H586L500 230Q486 162 463 116T408 42T341 1T268 -12Q180 -12 131
38T82 180Q82 200 83 219T90 262L170 660ZM390 812H414L486 710H460L402 786H398L308 710H278L390 812Z" />
<glyph unicode="&#xdc;" glyph-name="Udieresis" horiz-adv-x="594" d="M170 660H200L122 270Q116 246 114 226T112 188Q112 105 152 60T272 14Q304 14 335 26T392 65T439 134T472 238L556 660H586L500 230Q486 162 463 116T408 42T341 1T268 -12Q180 -12 131
38T82 180Q82 200 83 219T90 262L170 660ZM316 726Q290 726 290 752Q290 769 300 779T322 790Q348 790 348 762Q348 747 338 737T316 726ZM462 726Q436 726 436 752Q436 769 446 779T468 790Q494 790 494 762Q494 747 484 737T462 726Z" />
<glyph unicode="&#xdd;" glyph-name="Yacute" horiz-adv-x="422" d="M195 273L86 660H116L175 445Q185 409 194 375T214 303H217Q242 338 266 374T315 445L466 660H498L225 273L170 0H140L195 273ZM368 812H406L286 710H258L368 812Z" />
<glyph unicode="&#xde;" glyph-name="Thorn" horiz-adv-x="536" d="M172 660H202L178 536H314Q405 536 455 500T506 386Q506 332 487 292T432 224T345 184T230 170H104L70 0H40L172 660ZM224 196Q349 196 412 243T476 384Q476 452 431 481T296 510H172L110 196H224Z" />
<glyph unicode="&#xdf;" glyph-name="germandbls" horiz-adv-x="512" d="M152 540Q160 579 176 614T216 676T270 718T336 734Q387 734 416 704T446 616Q446 566 423 533T372 474T321 423T298 362Q298 338 310 321T340 288T379 258T418 226T448 185T460 130Q460
101 449 75T418 30T371 -1T310 -12Q275 -12 240 2T176 42L194 62Q221 39 249 27T312 14Q336 14 357 22T395 45T422 80T432 124Q432 153 420 175T390 214T351 246T312 277T282 311T270 356Q270 385 281 407T308 448T344 484T379 521T407 563T418 616Q418 655 399
681T334 708Q305 708 280 694T234 656T200 600T178 530L72 0H44L152 540Z" />
<glyph unicode="&#xe0;" glyph-name="agrave" horiz-adv-x="524" d="M46 160Q46 229 68 289T126 394T209 464T306 490Q350 490 381 468T432 410H436L454 478H478L382 0H358L370 78H366Q328 39 283 14T186 -12Q123 -12 85 31T46 160ZM188 14Q238 14 285 42T378
122L430 372Q401 422 371 443T304 464Q259 464 218 438T144 370T93 275T74 166Q74 89 104 52T188 14ZM276 704H310L370 570H346L276 704Z" />
<glyph unicode="&#xe1;" glyph-name="aacute" horiz-adv-x="524" d="M46 160Q46 229 68 289T126 394T209 464T306 490Q350 490 381 468T432 410H436L454 478H478L382 0H358L370 78H366Q328 39 283 14T186 -12Q123 -12 85 31T46 160ZM188 14Q238 14 285 42T378
122L430 372Q401 422 371 443T304 464Q259 464 218 438T144 370T93 275T74 166Q74 89 104 52T188 14ZM386 704H424L298 570H270L386 704Z" />
<glyph unicode="&#xe2;" glyph-name="acircumflex" horiz-adv-x="524" d="M46 160Q46 229 68 289T126 394T209 464T306 490Q350 490 381 468T432 410H436L454 478H478L382 0H358L370 78H366Q328 39 283 14T186 -12Q123 -12 85 31T46 160ZM188 14Q238 14 285 42T378
122L430 372Q401 422 371 443T304 464Q259 464 218 438T144 370T93 275T74 166Q74 89 104 52T188 14ZM340 704H358L426 570H402L346 670H342L246 570H218L340 704Z" />
<glyph unicode="&#xe3;" glyph-name="atilde" horiz-adv-x="524" d="M46 160Q46 229 68 289T126 394T209 464T306 490Q350 490 381 468T432 410H436L454 478H478L382 0H358L370 78H366Q328 39 283 14T186 -12Q123 -12 85 31T46 160ZM188 14Q238 14 285 42T378
122L430 372Q401 422 371 443T304 464Q259 464 218 438T144 370T93 275T74 166Q74 89 104 52T188 14ZM208 582Q212 597 219 611T235 638T256 657T282 664Q303 664 315 655T338 634T359 614T386 604Q400 604 412 621T434 662H456Q447 632 429 606T382 580Q361 580
349 589T326 610T305 630T278 640Q264 640 252 623T230 582H208Z" />
<glyph unicode="&#xe4;" glyph-name="adieresis" horiz-adv-x="524" d="M46 160Q46 229 68 289T126 394T209 464T306 490Q350 490 381 468T432 410H436L454 478H478L382 0H358L370 78H366Q328 39 283 14T186 -12Q123 -12 85 31T46 160ZM188 14Q238 14 285 42T378
122L430 372Q401 422 371 443T304 464Q259 464 218 438T144 370T93 275T74 166Q74 89 104 52T188 14ZM260 602Q234 602 234 628Q234 645 244 655T266 666Q292 666 292 638Q292 623 282 613T260 602ZM406 602Q380 602 380 628Q380 645 390 655T412 666Q438 666 438
638Q438 623 428 613T406 602Z" />
<glyph unicode="&#xe5;" glyph-name="aring" horiz-adv-x="524" d="M46 160Q46 229 68 289T126 394T209 464T306 490Q350 490 381 468T432 410H436L454 478H478L382 0H358L370 78H366Q328 39 283 14T186 -12Q123 -12 85 31T46 160ZM188 14Q238 14 285 42T378 122L430
372Q401 422 371 443T304 464Q259 464 218 438T144 370T93 275T74 166Q74 89 104 52T188 14ZM324 534Q294 534 274 553T254 610Q254 629 261 646T280 676T307 696T340 704Q370 704 390 685T410 628Q410 609 403 592T384 562T357 542T324 534ZM338 682Q314 682 296
662T278 612Q278 586 290 571T326 556Q350 556 368 576T386 626Q386 652 374 667T338 682Z" />
<glyph unicode="&#xe6;" glyph-name="ae" horiz-adv-x="766" d="M40 102Q40 151 63 186T130 244T234 279T370 294Q375 314 376 327T378 356Q378 407 356 435T280 464Q245 464 208 451T136 416L124 440Q157 460 199 475T282 490Q336 490 369 461T406 372Q441 426
489 458T588 490Q626 490 653 478T697 443T722 390T730 322Q730 298 727 278T718 242H390Q380 192 385 151T409 79T455 31T522 14Q557 14 589 28T648 62L662 40Q633 19 597 4T520 -12Q467 -12 426 18T370 96Q319 45 266 17T158 -12Q135 -12 114 -5T76 16T50 52T40
102ZM696 268Q699 283 700 297T702 328Q702 353 696 377T677 421T641 452T586 464Q557 464 527 450T472 409T426 347T396 268H696ZM366 268Q299 266 244 256T150 227T90 178T68 108Q68 61 95 38T164 14Q203 14 255 40T362 122Q359 143 358 161T357 196T360 230T366
268Z" />
<glyph unicode="&#xe7;" glyph-name="ccedilla" horiz-adv-x="428" d="M44 176Q44 246 66 304T124 403T205 467T298 490Q339 490 366 475T418 432L398 412Q375 439 353 451T296 464Q254 464 214 442T142 380T91 290T72 182Q72 99 106 57T212 14Q250 14 282 29T342
66L358 44Q332 24 296 6T210 -12Q133 -12 89 36T44 176ZM192 2H220L176 -60Q194 -66 208 -78T222 -114Q222 -135 212 -151T186 -178T147 -197T102 -208L98 -188Q140 -179 168 -163T196 -120Q196 -100 182 -91T138 -74L192 2Z" />
<glyph unicode="&#xe8;" glyph-name="egrave" horiz-adv-x="468" d="M44 184Q44 252 65 308T121 405T200 468T290 490Q328 490 355 478T399 443T424 390T432 322Q432 298 429 278T420 242H78Q67 182 75 139T104 68T156 27T226 14Q259 14 291 28T350 62L364 40Q335
19 299 4T224 -12Q141 -12 93 37T44 184ZM398 268Q401 283 402 297T404 328Q404 353 398 377T379 421T343 452T288 464Q254 464 222 450T162 409T115 347T84 268H398ZM256 704H290L350 570H326L256 704Z" />
<glyph unicode="&#xe9;" glyph-name="eacute" horiz-adv-x="468" d="M44 184Q44 252 65 308T121 405T200 468T290 490Q328 490 355 478T399 443T424 390T432 322Q432 298 429 278T420 242H78Q67 182 75 139T104 68T156 27T226 14Q259 14 291 28T350 62L364 40Q335
19 299 4T224 -12Q141 -12 93 37T44 184ZM398 268Q401 283 402 297T404 328Q404 353 398 377T379 421T343 452T288 464Q254 464 222 450T162 409T115 347T84 268H398ZM366 704H404L278 570H250L366 704Z" />
<glyph unicode="&#xea;" glyph-name="ecircumflex" horiz-adv-x="468" d="M44 184Q44 252 65 308T121 405T200 468T290 490Q328 490 355 478T399 443T424 390T432 322Q432 298 429 278T420 242H78Q67 182 75 139T104 68T156 27T226 14Q259 14 291 28T350 62L364
40Q335 19 299 4T224 -12Q141 -12 93 37T44 184ZM398 268Q401 283 402 297T404 328Q404 353 398 377T379 421T343 452T288 464Q254 464 222 450T162 409T115 347T84 268H398ZM320 704H338L406 570H382L326 670H322L226 570H198L320 704Z" />
<glyph unicode="&#xeb;" glyph-name="edieresis" horiz-adv-x="468" d="M44 184Q44 252 65 308T121 405T200 468T290 490Q328 490 355 478T399 443T424 390T432 322Q432 298 429 278T420 242H78Q67 182 75 139T104 68T156 27T226 14Q259 14 291 28T350 62L364
40Q335 19 299 4T224 -12Q141 -12 93 37T44 184ZM398 268Q401 283 402 297T404 328Q404 353 398 377T379 421T343 452T288 464Q254 464 222 450T162 409T115 347T84 268H398ZM240 602Q214 602 214 628Q214 645 224 655T246 666Q272 666 272 638Q272 623 262 613T240
602ZM386 602Q360 602 360 628Q360 645 370 655T392 666Q418 666 418 638Q418 623 408 613T386 602Z" />
<glyph unicode="&#xec;" glyph-name="igrave" horiz-adv-x="214" d="M140 478H168L72 0H44L140 478ZM128 704H162L222 570H198L128 704Z" />
<glyph unicode="&#xed;" glyph-name="iacute" horiz-adv-x="214" d="M140 478H168L72 0H44L140 478ZM238 704H276L150 570H122L238 704Z" />
<glyph unicode="&#xee;" glyph-name="icircumflex" horiz-adv-x="214" d="M140 478H168L72 0H44L140 478ZM192 704H210L278 570H254L198 670H194L98 570H70L192 704Z" />
<glyph unicode="&#xef;" glyph-name="idieresis" horiz-adv-x="214" d="M140 478H168L72 0H44L140 478ZM112 602Q86 602 86 628Q86 645 96 655T118 666Q144 666 144 638Q144 623 134 613T112 602ZM258 602Q232 602 232 628Q232 645 242 655T264 666Q290 666 290
638Q290 623 280 613T258 602Z" />
<glyph unicode="&#xf0;" glyph-name="eth" horiz-adv-x="514" d="M216 14Q260 14 296 39T360 106T402 202T420 317Q408 335 394 352T363 383T326 405T282 414Q236 414 199 393T134 338T93 259T78 168Q78 137 87 109T114 60T157 27T216 14ZM372 600Q407 550 427
487T448 340Q448 266 431 202T383 91T307 16T210 -12Q175 -12 146 2T95 40T62 96T50 164Q50 217 66 267T113 355T187 417T284 440Q324 440 358 418T420 359Q417 433 398 489T347 590L198 526L190 548L333 609Q310 636 284 659T226 702L242 722Q309 679 358 620L504
682L512 660L372 600Z" />
<glyph unicode="&#xf1;" glyph-name="ntilde" horiz-adv-x="504" d="M140 478H164L152 400H156Q201 439 242 464T328 490Q390 490 416 458T442 374Q442 356 441 344T434 310L372 0H344L406 306Q411 329 412 342T414 370Q414 417 393 440T324 464Q291 464 246 439T144
358L72 0H44L140 478ZM214 582Q218 597 225 611T241 638T262 657T288 664Q309 664 321 655T344 634T365 614T392 604Q406 604 418 621T440 662H462Q453 632 435 606T388 580Q367 580 355 589T332 610T311 630T284 640Q270 640 258 623T236 582H214Z" />
<glyph unicode="&#xf2;" glyph-name="ograve" horiz-adv-x="500" d="M204 -12Q132 -12 89 36T46 176Q46 243 67 300T122 400T202 466T296 490Q368 490 411 442T454 302Q454 235 433 178T378 78T298 12T204 -12ZM294 464Q253 464 214 442T144 380T93 290T74 182Q74
99 108 57T206 14Q246 14 285 36T356 98T407 188T426 296Q426 379 392 421T294 464ZM280 704H314L374 570H350L280 704Z" />
<glyph unicode="&#xf3;" glyph-name="oacute" horiz-adv-x="500" d="M204 -12Q132 -12 89 36T46 176Q46 243 67 300T122 400T202 466T296 490Q368 490 411 442T454 302Q454 235 433 178T378 78T298 12T204 -12ZM294 464Q253 464 214 442T144 380T93 290T74 182Q74
99 108 57T206 14Q246 14 285 36T356 98T407 188T426 296Q426 379 392 421T294 464ZM390 704H428L302 570H274L390 704Z" />
<glyph unicode="&#xf4;" glyph-name="ocircumflex" horiz-adv-x="500" d="M204 -12Q132 -12 89 36T46 176Q46 243 67 300T122 400T202 466T296 490Q368 490 411 442T454 302Q454 235 433 178T378 78T298 12T204 -12ZM294 464Q253 464 214 442T144 380T93 290T74
182Q74 99 108 57T206 14Q246 14 285 36T356 98T407 188T426 296Q426 379 392 421T294 464ZM344 704H362L430 570H406L350 670H346L250 570H222L344 704Z" />
<glyph unicode="&#xf5;" glyph-name="otilde" horiz-adv-x="500" d="M204 -12Q132 -12 89 36T46 176Q46 243 67 300T122 400T202 466T296 490Q368 490 411 442T454 302Q454 235 433 178T378 78T298 12T204 -12ZM294 464Q253 464 214 442T144 380T93 290T74 182Q74
99 108 57T206 14Q246 14 285 36T356 98T407 188T426 296Q426 379 392 421T294 464ZM212 582Q216 597 223 611T239 638T260 657T286 664Q307 664 319 655T342 634T363 614T390 604Q404 604 416 621T438 662H460Q451 632 433 606T386 580Q365 580 353 589T330 610T309
630T282 640Q268 640 256 623T234 582H212Z" />
<glyph unicode="&#xf6;" glyph-name="odieresis" horiz-adv-x="500" d="M204 -12Q132 -12 89 36T46 176Q46 243 67 300T122 400T202 466T296 490Q368 490 411 442T454 302Q454 235 433 178T378 78T298 12T204 -12ZM294 464Q253 464 214 442T144 380T93 290T74
182Q74 99 108 57T206 14Q246 14 285 36T356 98T407 188T426 296Q426 379 392 421T294 464ZM264 602Q238 602 238 628Q238 645 248 655T270 666Q296 666 296 638Q296 623 286 613T264 602ZM410 602Q384 602 384 628Q384 645 394 655T416 666Q442 666 442 638Q442
623 432 613T410 602Z" />
<glyph unicode="&#xf7;" glyph-name="divide" horiz-adv-x="456" d="M242 478Q228 478 220 488T212 512Q212 526 220 535T242 544Q256 544 264 535T272 512Q272 498 264 488T242 478ZM242 114Q228 114 220 124T212 148Q212 162 220 171T242 180Q256 180 264 171T272
148Q272 134 264 124T242 114ZM48 318V344H436V318H48Z" />
<glyph unicode="&#xf8;" glyph-name="oslash" horiz-adv-x="500" d="M103 65Q136 14 206 14Q246 14 285 36T356 98T407 188T426 296Q426 347 412 384L103 65ZM401 408Q366 464 294 464Q253 464 214 442T144 380T93 290T74 182Q74 125 90 89L401 408ZM434 406Q454
361 454 302Q454 235 433 178T378 78T298 12T204 -12Q125 -12 83 45L18 -22L0 -4L69 67Q46 111 46 176Q46 243 67 300T122 400T202 466T296 490Q378 490 421 429L488 498L506 480L434 406Z" />
<glyph unicode="&#xf9;" glyph-name="ugrave" horiz-adv-x="514" d="M372 0H348L360 80H356Q311 41 270 15T184 -12Q122 -12 96 20T70 104Q70 122 71 134T78 168L140 478H168L106 172Q101 149 100 136T98 108Q98 61 119 38T188 14Q221 14 266 39T368 120L440 478H468L372
0ZM270 704H304L364 570H340L270 704Z" />
<glyph unicode="&#xfa;" glyph-name="uacute" horiz-adv-x="514" d="M372 0H348L360 80H356Q311 41 270 15T184 -12Q122 -12 96 20T70 104Q70 122 71 134T78 168L140 478H168L106 172Q101 149 100 136T98 108Q98 61 119 38T188 14Q221 14 266 39T368 120L440 478H468L372
0ZM380 704H418L292 570H264L380 704Z" />
<glyph unicode="&#xfb;" glyph-name="ucircumflex" horiz-adv-x="514" d="M372 0H348L360 80H356Q311 41 270 15T184 -12Q122 -12 96 20T70 104Q70 122 71 134T78 168L140 478H168L106 172Q101 149 100 136T98 108Q98 61 119 38T188 14Q221 14 266 39T368 120L440
478H468L372 0ZM334 704H352L420 570H396L340 670H336L240 570H212L334 704Z" />
<glyph unicode="&#xfc;" glyph-name="udieresis" horiz-adv-x="514" d="M372 0H348L360 80H356Q311 41 270 15T184 -12Q122 -12 96 20T70 104Q70 122 71 134T78 168L140 478H168L106 172Q101 149 100 136T98 108Q98 61 119 38T188 14Q221 14 266 39T368 120L440
478H468L372 0ZM254 602Q228 602 228 628Q228 645 238 655T260 666Q286 666 286 638Q286 623 276 613T254 602ZM400 602Q374 602 374 628Q374 645 384 655T406 666Q432 666 432 638Q432 623 422 613T400 602Z" />
<glyph unicode="&#xfd;" glyph-name="yacute" horiz-adv-x="408" d="M-72 -188Q-56 -196 -38 -196Q7 -196 45 -158T116 -54L138 -10L58 478H86L136 166Q142 131 147 94T158 24H162Q180 59 199 94T238 166L408 478H438L138 -66Q124 -94 107 -121T67 -171T19 -208T-40
-222Q-48 -222 -59 -220T-84 -212L-72 -188V-188ZM320 704H358L232 570H204L320 704Z" />
<glyph unicode="&#xfe;" glyph-name="thorn" horiz-adv-x="520" d="M216 -12Q172 -12 140 10T86 68H84L62 -42L28 -222H0L188 722H216L172 506L152 408H154Q193 440 239 465T336 490Q399 490 437 446T476 318Q476 249 454 189T396 84T312 14T216 -12ZM334 464Q313
464 289 457T241 438T192 408T146 372L92 102Q121 54 151 34T218 14Q263 14 304 39T378 107T429 202T448 312Q448 388 418 426T334 464Z" />
<glyph unicode="&#xff;" glyph-name="ydieresis" horiz-adv-x="408" d="M-72 -188Q-56 -196 -38 -196Q7 -196 45 -158T116 -54L138 -10L58 478H86L136 166Q142 131 147 94T158 24H162Q180 59 199 94T238 166L408 478H438L138 -66Q124 -94 107 -121T67 -171T19
-208T-40 -222Q-48 -222 -59 -220T-84 -212L-72 -188V-188ZM194 602Q168 602 168 628Q168 645 178 655T200 666Q226 666 226 638Q226 623 216 613T194 602ZM340 602Q314 602 314 628Q314 645 324 655T346 666Q372 666 372 638Q372 623 362 613T340 602Z" />
<glyph unicode="&#x2013;" glyph-name="endash" horiz-adv-x="462" d="M42 264H426L418 238H36L42 264Z" />
<glyph unicode="&#x2014;" glyph-name="emdash" horiz-adv-x="768" d="M42 264H732L726 238H36L42 264Z" />
<glyph unicode="&#x2018;" glyph-name="quoteleft" horiz-adv-x="202" d="M232 682Q194 658 174 627T152 564H156Q170 564 179 557T188 534Q188 519 179 509T156 498Q141 498 131 509T120 542Q120 595 147 635T220 702L232 682Z" />
<glyph unicode="&#x2019;" glyph-name="quoteright" horiz-adv-x="202" d="M114 518Q152 542 172 573T194 636H190Q176 636 167 643T158 666Q158 681 167 691T190 702Q205 702 215 691T226 658Q226 605 199 565T126 498L114 518Z" />
<glyph unicode="&#x201a;" glyph-name="quotesinglbase" horiz-adv-x="202" d="M-17 -119Q21 -95 41 -64T63 -1H59Q45 -1 36 6T27 29Q27 44 36 54T59 65Q74 65 84 54T95 21Q95 -32 68 -72T-5 -139L-17 -119Z" />
<glyph unicode="&#x201c;" glyph-name="quotedblleft" horiz-adv-x="324" d="M232 682Q194 658 174 627T152 564H156Q170 564 179 557T188 534Q188 519 179 509T156 498Q141 498 131 509T120 542Q120 595 147 635T220 702L232 682ZM354 682Q316 658 296 627T274
564H278Q292 564 301 557T310 534Q310 519 301 509T278 498Q263 498 253 509T242 542Q242 595 269 635T342 702L354 682Z" />
<glyph unicode="&#x201d;" glyph-name="quotedblright" horiz-adv-x="324" d="M114 518Q152 542 172 573T194 636H190Q176 636 167 643T158 666Q158 681 167 691T190 702Q205 702 215 691T226 658Q226 605 199 565T126 498L114 518ZM236 518Q274 542 294 573T316
636H312Q298 636 289 643T280 666Q280 681 289 691T312 702Q327 702 337 691T348 658Q348 605 321 565T248 498L236 518Z" />
<glyph unicode="&#x201e;" glyph-name="quotedblbase" horiz-adv-x="192" d="M-17 -119Q21 -95 41 -64T63 -1H59Q45 -1 36 6T27 29Q27 44 36 54T59 65Q74 65 84 54T95 21Q95 -32 68 -72T-5 -139L-17 -119ZM105 -119Q143 -95 163 -64T185 -1H181Q167 -1 158 6T149
29Q149 44 158 54T181 65Q196 65 206 54T217 21Q217 -32 190 -72T117 -139L105 -119Z" />
<glyph unicode="&#x2022;" glyph-name="bullet" horiz-adv-x="266" d="M126 160Q90 160 66 185T42 252Q42 274 49 295T70 332T103 359T148 370Q183 370 206 345T230 278Q230 255 223 234T202 197T169 170T126 160Z" />
<glyph unicode="&#x2039;" glyph-name="guilsinglleft" horiz-adv-x="236" d="M40 240L46 272L204 428L220 412L72 252L162 86L142 74L40 240Z" />
<glyph unicode="&#x203a;" glyph-name="guilsinglright" horiz-adv-x="236" d="M200 262L194 230L36 74L20 90L168 250L78 416L98 428L200 262Z" />
</font>
</defs>
</svg>
